<?xml version="1.0" standalone="no"?>
<!DOCTYPE svg PUBLIC "-//W3C//DTD SVG 1.1//EN" "../../../../www.w3.org/Graphics/SVG/1.1/DTD/svg11.dtd" >
<svg xmlns="http://www.w3.org/2000/svg">
<metadata></metadata>
<defs>
<font id="fontawesomeregular" horiz-adv-x="1536" >
<font-face units-per-em="1792" ascent="1536" descent="-256" />
<missing-glyph horiz-adv-x="448" />
<glyph unicode=" "  horiz-adv-x="448" />
<glyph unicode="&#x09;" horiz-adv-x="448" />
<glyph unicode="&#xa0;" horiz-adv-x="448" />
<glyph unicode="&#xa8;" horiz-adv-x="1792" />
<glyph unicode="&#xa9;" horiz-adv-x="1792" />
<glyph unicode="&#xae;" horiz-adv-x="1792" />
<glyph unicode="&#xb4;" horiz-adv-x="1792" />
<glyph unicode="&#xc6;" horiz-adv-x="1792" />
<glyph unicode="&#xd8;" horiz-adv-x="1792" />
<glyph unicode="&#x2000;" horiz-adv-x="768" />
<glyph unicode="&#x2001;" horiz-adv-x="1537" />
<glyph unicode="&#x2002;" horiz-adv-x="768" />
<glyph unicode="&#x2003;" horiz-adv-x="1537" />
<glyph unicode="&#x2004;" horiz-adv-x="512" />
<glyph unicode="&#x2005;" horiz-adv-x="384" />
<glyph unicode="&#x2006;" horiz-adv-x="256" />
<glyph unicode="&#x2007;" horiz-adv-x="256" />
<glyph unicode="&#x2008;" horiz-adv-x="192" />
<glyph unicode="&#x2009;" horiz-adv-x="307" />
<glyph unicode="&#x200a;" horiz-adv-x="85" />
<glyph unicode="&#x202f;" horiz-adv-x="307" />
<glyph unicode="&#x205f;" horiz-adv-x="384" />
<glyph unicode="&#x2122;" horiz-adv-x="1792" />
<glyph unicode="&#x221e;" horiz-adv-x="1792" />
<glyph unicode="&#x2260;" horiz-adv-x="1792" />
<glyph unicode="&#x25fc;" horiz-adv-x="500" d="M0 0z" />
<glyph unicode="&#xf000;" horiz-adv-x="1792" d="M93 1350q0 23 18 36.5t38 17.5t43 4h1408q23 0 43 -4t38 -17.5t18 -36.5q0 -35 -43 -78l-632 -632v-768h320q26 0 45 -19t19 -45t-19 -45t-45 -19h-896q-26 0 -45 19t-19 45t19 45t45 19h320v768l-632 632q-43 43 -43 78z" />
<glyph unicode="&#xf001;" d="M0 -64q0 50 34 89t86 60.5t103.5 32t96.5 10.5q105 0 192 -39v967q0 31 19 56.5t49 35.5l832 256q12 4 28 4q40 0 68 -28t28 -68v-1120q0 -50 -34 -89t-86 -60.5t-103.5 -32t-96.5 -10.5t-96.5 10.5t-103.5 32t-86 60.5t-34 89t34 89t86 60.5t103.5 32t96.5 10.5 q105 0 192 -39v537l-768 -237v-709q0 -50 -34 -89t-86 -60.5t-103.5 -32t-96.5 -10.5t-96.5 10.5t-103.5 32t-86 60.5t-34 89z" />
<glyph unicode="&#xf002;" horiz-adv-x="1664" d="M0 704q0 143 55.5 273.5t150 225t225 150t273.5 55.5t273.5 -55.5t225 -150t150 -225t55.5 -273.5q0 -220 012983BA64" />
<glyph unicode="&#xf003;" horiz-adv-x="1792" d="M0 32v1088q0 66 47 113t113 47h1472q66 0 113 -47t47 -113v-1088q0 -66 -47 -113t-113 -47h-1472q-66 0 -108AA5FCAAA" />
<glyph unicode="&#xf004;" horiz-adv-x="1792" d="M0 940q0 220 127 344t351 124q62 0 126.5 -21.5t120 -58t95.5 -68.5t76 -68q36 36 76 68t95.5 68.5t120 58t126.5 21.5q224 0 351 -124t127 -344q0 -221 -229 -450l-623 -600q-18 -18 -44 -18t-44 18l-624 602q-10 8 -27.5 26t-55.5 65.5t-68 97.5t-53.5 121t-23.5 138z " />
<glyph unicode="&#xf005;" horiz-adv-x="1664" d="M0 889q0 37 56 46l502 73l225 455q19 41 49 41t49 -41l225 -455l502 -73q56 -9 56 -46q0 -22 -26 -48l-363 -354l86 -500q1 -7 1 -20q0 -21 -10.5 -35.5t-30.5 -14.5q-19 0 -40 12l-449 236l-449 -236q-22 -12 -40 -12q-21 0 -31.5 14.5t-10.5 35.5q0 6 2 20l86 500 l-364 354q-25 27 -25 48z" />
<glyph unicode="&#xf006;" horiz-adv-x="1664" d="M0 889q0 37 56 46l502 73l225 455q19 41 49 41t49 -41l225 -455l502 -73q56 -9 56 -46q0 -22 -26 -48l-363 -354l86 -500q1 -7 1 -20q0 -50 -41 -50q-19 0 -40 12l-449 236l-449 -236q-22 -12 -40 -12q-21 0 -31.5 14.5t-10.5 35.5q0 6 2 20l86 500l-364 354 q-25 27 -25 48zM221 829l306 -297l-73 -421l378 199l377 -199l-72 421l306 297l-422 62l-189 382l-189 -382z" />
<glyph unicode="&#xf007;" horiz-adv-x="1408" d="M0 131q0 53 3.5 103.5t14 109t26.5 108.5t43 97.5t62 81t85.5 53.5t111.5 20q9 0 42 -21.5t74.5 -48t108 -0D62EA4A34" />
<glyph unicode="&#xf008;" horiz-adv-x="1920" d="M0 -96v1344q0 66 47 113t113 47h1600q66 0 113 -47t47 -113v-1344q0 -66 -47 -113t-113 -47h-1600q-66 0 -113 47t-47 113zM128 64v-128q0 -26 19 -45t45 -19h128q26 0 45 19t19 45v128q0 26 -19 45t-45 19h-128q-26 0 -45 -19t-19 -45zM128 320q0 -26 19 -45t45 -19h128 q26 0 45 19t19 45v128q0 26 -19 45t-45 19h-128q-26 0 -45 -19t-19 -45v-128zM128 704q0 -26 19 -45t45 -19h128q26 0 45 19t19 45v128q0 26 -19 45t-45 19h-128q-26 0 -45 -19t-19 -45v-128zM128 1088q0 -26 19 -45t45 -19h128q26 0 45 19t19 45v128q0 26 -19 45t-45 19 h-128q-26 0 -45 -19t-19 -45v-128zM512 -64q0 -26 19 -45t45 -19h768q26 0 45 19t19 45v512q0 26 -19 45t-45 19h-768q-26 0 -45 -19t-19 -45v-512zM512 704q0 -26 19 -45t45 -19h768q26 0 45 19t19 45v512q0 26 -19 45t-45 19h-768q-26 0 -45 -19t-19 -45v-512zM1536 64 v-128q0 -26 19 -45t45 -19h128q26 0 45 19t19 45v128q0 26 -19 45t-45 19h-128q-26 0 -45 -19t-19 -45zM1536 320q0 -26 19 -45t45 -19h128q26 0 45 19t19 45v128q0 26 -19 45t-45 19h-128q-26 0 -45 -19t-19 -45v-128zM1536 704q0 -26 19 -45t45 -19h128q26 0 45 19t19 45 v128q0 26 -19 45t-45 19h-128q-26 0 -45 -19t-19 -45v-128zM1536 1088q0 -26 19 -45t45 -19h128q26 0 45 19t19 45v128q0 26 -19 45t-45 19h-128q-26 0 -45 -19t-19 -45v-128z" />
<glyph unicode="&#xf009;" horiz-adv-x="1664" d="M0 128v384q0 52 38 90t90 38h512q52 0 90 -38t38 -90v-384q0 -52 -38 -90t-90 -38h-512q-52 0 -90 38t-38 90zM0 896v384q0 52 38 90t90 38h512q52 0 90 -38t38 -90v-384q0 -52 -38 -90t-90 -38h-512q-52 0 -90 38t-38 90zM896 128v384q0 52 38 90t90 38h512q52 0 90 -38 t38 -90v-384q0 -52 -38 -90t-90 -38h-512q-52 0 -90 38t-38 90zM896 896v384q0 52 38 90t90 38h512q52 0 90 -38t38 -90v-384q0 -52 -38 -90t-90 -38h-512q-52 0 -90 38t-38 90z" />
<glyph unicode="&#xf00a;" horiz-adv-x="1792" d="M0 96v192q0 40 28 68t68 28h320q40 0 68 -28t28 -68v-192q0 -40 -28 -68t-68 -28h-320q-40 0 -68 28t-28 68zM0 608v192q0 40 28 68t68 28h320q40 0 68 -28t28 -68v-192q0 -40 -28 -68t-68 -28h-320q-40 0 -68 28t-28 68zM0 1120v192q0 40 28 68t68 28h320q40 0 68 -28 t28 -68v-192q0 -40 -28 -68t-68 -28h-320q-40 0 -68 28t-28 68zM640 96v192q0 40 28 68t68 28h320q40 0 68 -28t28 -68v-192q0 -40 -28 -68t-68 -28h-320q-40 0 -68 28t-28 68zM640 608v192q0 40 28 68t68 28h320q40 0 68 -28t28 -68v-192q0 -40 -28 -68t-68 -28h-320 q-40 0 -68 28t-28 68zM640 1120v192q0 40 28 68t68 28h320q40 0 68 -28t28 -68v-192q0 -40 -28 -68t-68 -28h-320q-40 0 -68 28t-28 68zM1280 96v192q0 40 28 68t68 28h320q40 0 68 -28t28 -68v-192q0 -40 -28 -68t-68 -28h-320q-40 0 -68 28t-28 68zM1280 608v192 q0 40 28 68t68 28h320q40 0 68 -28t28 -68v-192q0 -40 -28 -68t-68 -28h-320q-40 0 -68 28t-28 68zM1280 1120v192q0 40 28 68t68 28h320q40 0 68 -28t28 -68v-192q0 -40 -28 -68t-68 -28h-320q-40 0 -68 28t-28 68z" />
<glyph unicode="&#xf00b;" horiz-adv-x="1792" d="M0 96v192q0 40 28 68t68 28h320q40 0 68 -28t28 -68v-192q0 -40 -28 -68t-68 -28h-320q-40 0 -68 28t-28 68zM0 608v192q0 40 28 68t68 28h320q40 0 68 -28t28 -68v-192q0 -40 -28 -68t-68 -28h-320q-40 0 -68 28t-28 68zM0 1120v192q0 40 28 68t68 28h320q40 0 68 -28 t28 -68v-192q0 -40 -28 -68t-68 -28h-320q-40 0 -68 28t-28 68zM640 96v192q0 40 28 68t68 28h960q40 0 68 -28t28 -68v-192q0 -40 -28 -68t-68 -28h-960q-40 0 -68 28t-28 68zM640 608v192q0 40 28 68t68 28h960q40 0 68 -28t28 -68v-192q0 -40 -28 -68t-68 -28h-960 q-40 0 -68 28t-28 68zM640 1120v192q0 40 28 68t68 28h960q40 0 68 -28t28 -68v-192q0 -40 -28 -68t-68 -28h-960q-40 0 -68 28t-28 68z" />
<glyph unicode="&#xf00c;" horiz-adv-x="1792" d="M121 608q0 40 28 68l136 136q28 28 68 28t68 -28l294 -295l656 657q28 28 68 28t68 -28l136 -136q28 -28 28 -68t-28 -68l-724 -724l-136 -136q-28 -28 -68 -28t-68 28l-136 136l-362 362q-28 28 -28 68z" />
<glyph unicode="&#xf00d;" horiz-adv-x="1408" d="M110 214q0 40 28 68l294 294l-294 294q-28 28 -28 68t28 68l136 136q28 28 68 28t68 -28l294 -294l294 294q28 28 68 28t68 -28l136 -136q28 -28 28 -68t-28 -68l-294 -294l294 -294q28 -28 28 -68t-28 -68l-136 -136q-28 -28 -68 -28t-68 28l-294 294l-294 -294 q-28 -28 -68 -28t-68 28l-136 136q-28 28 -28 68z" />
<glyph unicode="&#xf00e;" horiz-adv-x="1664" d="M0 704q0 143 55.5 273.5t150 225t225 150t273.5 55.5t273.5 -55.5t225 -150t150 -225t55.5 -273.5q0 -220 0B36F46A78" />
<glyph unicode="&#xf010;" horiz-adv-x="1664" d="M0 704q0 143 55.5 273.5t150 225t225 150t273.5 55.5t273.5 -55.5t225 -150t150 -225t55.5 -273.5q0 -220 02E27E1A1E" />
<glyph unicode="&#xf011;" d="M0 640q0 182 80.5 343t226.5 270q43 32 95.5 25t83.5 -50q32 -42 24.5 -94.5t-49.5 -84.5q-98 -74 -151.5 -181t-53.5 -228q0 -104 40.5 -198.5t109.5 -163.5t163.5 -109.5t198.5 -40.5t198.5 40.5t163.5 109.5t109.5 163.5t40.5 198.5q0 121 -53.5 228t-151.5 181 q-42 32 -49.5 84.5t24.5 94.5q31 43 84 50t95 -25q146 -109 226.5 -270t80.5 -343q0 -156 -61 -298t-164 -245t-245 -164t-298 -61t-298 61t-245 164t-164 245t-61 298zM640 768v640q0 52 38 90t90 38t90 -38t38 -90v-640q0 -52 -38 -90t-90 -38t-90 38t-38 90z" />
<glyph unicode="&#xf012;" horiz-adv-x="1792" d="M0 -96v192q0 14 9 23t23 9h192q14 0 23 -9t9 -23v-192q0 -14 -9 -23t-23 -9h-192q-14 0 -23 9t-9 23zM384 -96v320q0 14 9 23t23 9h192q14 0 23 -9t9 -23v-320q0 -14 -9 -23t-23 -9h-192q-14 0 -23 9t-9 23zM768 -96v576q0 14 9 23t23 9h192q14 0 23 -9t9 -23v-576 q0 -14 -9 -23t-23 -9h-192q-14 0 -23 9t-9 23zM1152 -96v960q0 14 9 23t23 9h192q14 0 23 -9t9 -23v-960q0 -14 -9 -23t-23 -9h-192q-14 0 -23 9t-9 23zM1536 -96v1472q0 14 9 23t23 9h192q14 0 23 -9t9 -23v-1472q0 -14 -9 -23t-23 -9h-192q-14 0 -23 9t-9 23z" />
<glyph unicode="&#xf013;" d="M0 531v222q0 12 8 23t19 13l186 28q14 46 39 92q-40 57 -107 138q-10 12 -10 24q0 10 9 23q26 36 98.5 107.5t94.5 71.5q13 0 26 -10l138 -107q44 23 91 38q16 136 29 186q7 28 36 28h222q14 0 24.5 -8.5t11.5 -21.5l28 -184q49 -16 90 -37l142 107q9 9 24 9q13 0 25 -10 q129 -119 165 -170q7 -8 7 -22q0 -12 -8 -23q-15 -21 -51 -66.5t-54 -70.5q26 -50 41 -98l183 -28q13 -2 21 -12.5t8 -23.5v-222q0 -12 -8 -23t-20 -13l-185 -28q-19 -54 -39 -91q35 -50 107 -138q10 -12 10 -25t-9 -23q-27 -37 -99 -108t-94 -71q-12 0 -26 9l-138 108 q-44 -23 -91 -38q-16 -136 -29 -186q-7 -28 -36 -28h-222q-14 0 -24.5 8.5t-11.5 21.5l-28 184q-49 16 -90 37l-141 -107q-10 -9 -25 -9q-14 0 -25 11q-126 114 -165 168q-7 10 -7 23q0 12 8 23q15 21 51 66.5t54 70.5q-27 50 -41 99l-183 27q-13 2 -21 12.5t-8 23.5z M512 640q0 -106 75 -181t181 -75t181 75t75 181t-75 181t-181 75t-181 -75t-75 -181z" />
<glyph unicode="&#xf014;" horiz-adv-x="1408" d="M0 1056v64q0 14 9 23t23 9h309l70 167q15 37 54 63t79 26h320q40 0 79 -26t54 -63l70 -167h309q14 0 23 -9t9 -23v-64q0 -14 -9 -23t-23 -9h-96v-948q0 -83 -47 -143.5t-113 -60.5h-832q-66 0 -113 58.5t-47 141.5v952h-96q-14 0 -23 9t-9 23zM256 76q0 -22 7 -40.5 t14.5 -27t10.5 -8.5h832q3 0 10.5 8.5t14.5 27t7 40.5v948h-896v-948zM384 224v576q0 14 9 23t23 9h64q14 0 23 -9t9 -23v-576q0 -14 -9 -23t-23 -9h-64q-14 0 -23 9t-9 23zM480 1152h448l-48 117q-7 9 -17 11h-317q-10 -2 -17 -11zM640 224v576q0 14 9 23t23 9h64 q14 0 23 -9t9 -23v-576q0 -14 -9 -23t-23 -9h-64q-14 0 -23 9t-9 23zM896 224v576q0 14 9 23t23 9h64q14 0 23 -9t9 -23v-576q0 -14 -9 -23t-23 -9h-64q-14 0 -23 9t-9 23z" />
<glyph unicode="&#xf015;" horiz-adv-x="1664" d="M26 636.5q1 13.5 11 21.5l719 599q32 26 76 26t76 -26l244 -204v195q0 14 9 23t23 9h192q14 0 23 -9t9 -23v-408l219 -182q10 -8 11 -21.5t-7 -23.5l-62 -74q-8 -9 -21 -11h-3q-13 0 -21 7l-692 577l-692 -577q-12 -8 -24 -7q-13 2 -21 11l-62 74q-8 10 -7 23.5zM256 64 v480q0 1 0.5 3t0.5 3l575 474l575 -474q1 -2 1 -6v-480q0 -26 -19 -45t-45 -19h-384v384h-256v-384h-384q-26 0 -45 19t-19 45z" />
<glyph unicode="&#xf016;" d="M0 -160v1600q0 40 28 68t68 28h896q40 0 88 -20t76 -48l312 -312q28 -28 48 -76t20 -88v-1152q0 -40 -28 -68t-68 -28h-1344q-40 0 -68 28t-28 68zM128 -128h1280v1024h-416q-40 0 -68 28t-28 68v416h-768v-1536zM1024 1024h376q-10 29 -22 41l-313 313q-12 12 -41 22 v-376z" />
<glyph unicode="&#xf017;" d="M0 640q0 209 103 385.5t279.5 279.5t385.5 103t385.5 -103t279.5 -279.5t103 -385.5t-103 -385.5t-279.5 -279.5t-385.5 -103t-385.5 103t-279.5 279.5t-103 385.5zM224 640q0 -148 73 -273t198 -198t273 -73t273 73t198 198t73 273t-73 273t-198 198t-273 73t-273 -73 t-198 -198t-73 -273zM512 544v64q0 14 9 23t23 9h224v352q0 14 9 23t23 9h64q14 0 23 -9t9 -23v-448q0 -14 -9 -23t-23 -9h-320q-14 0 -23 9t-9 23z" />
<glyph unicode="&#xf018;" horiz-adv-x="1920" d="M50 73q0 54 26 116l417 1044q8 19 26 33t38 14h339q-13 0 -23 -9.5t-11 -22.5l-15 -192q-1 -14 8 -23t22 -9h166q13 0 22 9t8 23l-15 192q-1 13 -11 22.5t-23 9.5h339q20 0 38 -14t26 -33l417 -1044q26 -62 26 -116q0 -73 -46 -73h-704q13 0 22 9.5t8 22.5l-20 256 q-1 13 -11 22.5t-23 9.5h-272q-13 0 -23 -9.5t-11 -22.5l-20 -256q-1 -13 8 -22.5t22 -9.5h-704q-46 0 -46 73zM809 540q-1 -12 8 -20t21 -8h244q12 0 21 8t8 20v4l-24 320q-1 13 -11 22.5t-23 9.5h-186q-13 0 -23 -9.5t-11 -22.5l-24 -320v-4z" />
<glyph unicode="&#xf019;" horiz-adv-x="1664" d="M0 96v320q0 40 28 68t68 28h465l135 -136q58 -56 136 -56t136 56l136 136h464q40 0 68 -28t28 -68v-320q0 -40 -28 -68t-68 -28h-1472q-40 0 -68 28t-28 68zM325 985q17 39 59 39h256v448q0 26 19 45t45 19h256q26 0 45 -19t19 -45v-448h256q42 0 59 -39q17 -41 -14 -70 l-448 -448q-18 -19 -45 -19t-45 19l-448 448q-31 29 -14 70zM1152 192q0 -26 19 -45t45 -19t45 19t19 45t-19 45t-45 19t-45 -19t-19 -45zM1408 192q0 -26 19 -45t45 -19t45 19t19 45t-19 45t-45 19t-45 -19t-19 -45z" />
<glyph unicode="&#xf01a;" d="M0 640q0 209 103 385.5t279.5 279.5t385.5 103t385.5 -103t279.5 -279.5t103 -385.5t-103 -385.5t-279.5 -279.5t-385.5 -103t-385.5 103t-279.5 279.5t-103 385.5zM224 640q0 -148 73 -273t198 -198t273 -73t273 73t198 198t73 273t-73 273t-198 198t-273 73t-273 -73 t-198 -198t-73 -273zM418 620q8 20 30 20h192v352q0 14 9 23t23 9h192q14 0 23 -9t9 -23v-352h192q14 0 23 -9t9 -23q0 -12 -10 -24l-319 -319q-11 -9 -23 -9t-23 9l-320 320q-15 16 -7 35z" />
<glyph unicode="&#xf01b;" d="M0 640q0 209 103 385.5t279.5 279.5t385.5 103t385.5 -103t279.5 -279.5t103 -385.5t-103 -385.5t-279.5 -279.5t-385.5 -103t-385.5 103t-279.5 279.5t-103 385.5zM224 640q0 -148 73 -273t198 -198t273 -73t273 73t198 198t73 273t-73 273t-198 198t-273 73t-273 -73 t-198 -198t-73 -273zM416 672q0 12 10 24l319 319q11 9 23 9t23 -9l320 -320q15 -16 7 -35q-8 -20 -30 -20h-192v-352q0 -14 -9 -23t-23 -9h-192q-14 0 -23 9t-9 23v352h-192q-14 0 -23 9t-9 23z" />
<glyph unicode="&#xf01c;" d="M0 64v482q0 62 25 123l238 552q10 25 36.5 42t52.5 17h832q26 0 52.5 -17t36.5 -42l238 -552q25 -61 25 -103EFB11A91" />
<glyph unicode="&#xf01d;" d="M0 640q0 209 103 385.5t279.5 279.5t385.5 103t385.5 -103t279.5 -279.5t103 -385.5t-103 -385.5t-279.5 -279.5t-385.5 -103t-385.5 103t-279.5 279.5t-103 385.5zM224 640q0 -148 73 -273t198 -198t273 -73t273 73t198 198t73 273t-73 273t-198 198t-273 73t-273 -73 t-198 -198t-73 -273zM512 320v640q0 37 32 56q33 18 64 -1l544 -320q32 -18 32 -55t-32 -55l-544 -320q-15 -9 -32 -9q-16 0 -32 8q-32 19 -32 56z" />
<glyph unicode="&#xf01e;" d="M0 640q0 156 61 298t164 245t245 164t298 61q147 0 284.5 -55.5t244.5 -156.5l130 129q29 31 70 14q39 -17 39 -59v-448q0 -26 -19 -45t-45 -19h-448q-42 0 -59 40q-17 39 14 69l138 138q-148 137 -349 137q-104 0 -198.5 -40.5t-163.5 -109.5t-109.5 -163.5 t-40.5 -198.5t40.5 -198.5t109.5 -163.5t163.5 -109.5t198.5 -40.5q119 0 225 52t179 147q7 10 23 12q14 0 25 -9l137 -138q9 -8 9.5 -20.5t-7.5 -22.5q-109 -132 -264 -204.5t-327 -72.5q-156 0 -298 61t-245 164t-164 245t-61 298z" />
<glyph unicode="&#xf021;" d="M0 0v448q0 26 19 45t45 19h448q26 0 45 -19t19 -45t-19 -45l-137 -137q71 -66 161 -102t187 -36q134 0 250091139EA50" />
<glyph unicode="&#xf022;" horiz-adv-x="1792" d="M0 160v1088q0 66 47 113t113 47h1472q66 0 113 -47t47 -113v-1088q0 -66 -47 -113t-113 -47h-1472q-66 0 -0B4E8FCA3B " />
<glyph unicode="&#xf023;" horiz-adv-x="1152" d="M0 96v576q0 40 28 68t68 28h32v192q0 184 132 316t316 132t316 -132t132 -316v-192h32q40 0 68 -28t28 -68v-576q0 -40 -28 -68t-68 -28h-960q-40 0 -68 28t-28 68zM320 768h512v192q0 106 -75 181t-181 75t-181 -75t-75 -181v-192z" />
<glyph unicode="&#xf024;" horiz-adv-x="1792" d="M64 1280q0 53 37.5 90.5t90.5 37.5t90.5 -37.5t37.5 -90.5q0 -72 -64 -110v-1266q0 -13 -9.5 -22.5t-22.5 -9.5h-64q-13 0 -22.5 9.5t-9.5 22.5v1266q-64 38 -64 110zM320 320v742q0 32 31 55q21 14 79 43q236 120 421 120q107 0 200 -29t219 -88q38 -19 88 -19 q54 0 117.5 21t110 47t88 47t54.5 21q26 0 45 -19t19 -45v-763q0 -25 -12.5 -38.5t-39.5 -27.5q-215 -116 -369 -116q-61 0 -123.5 22t-108.5 48t-115.5 48t-142.5 22q-192 0 -464 -146q-17 -9 -33 -9q-26 0 -45 19t-19 45z" />
<glyph unicode="&#xf025;" horiz-adv-x="1664" d="M0 650q0 151 67 291t179 242.5t266 163.5t320 61t320 -61t266 -163.5t179 -242.5t67 -291q0 -166 -60 -314l-20 -49l-185 -33q-22 -83 -90.5 -136.5t-156.5 -53.5v-32q0 -14 -9 -23t-23 -9h-64q-14 0 -23 9t-9 23v576q0 14 9 23t23 9h64q14 0 23 -9t9 -23v-32 q71 0 130 -35.5t93 -95.5l68 12q29 95 29 193q0 148 -88 279t-236.5 209t-315.5 78t-315.5 -78t-236.5 -209t-88 -279q0 -98 29 -193l68 -12q34 60 93 95.5t130 35.5v32q0 14 9 23t23 9h64q14 0 23 -9t9 -23v-576q0 -14 -9 -23t-23 -9h-64q-14 0 -23 9t-9 23v32 q-88 0 -156.5 53.5t-90.5 136.5l-185 33l-20 49q-60 148 -60 314z" />
<glyph unicode="&#xf026;" horiz-adv-x="768" d="M0 448v384q0 26 19 45t45 19h262l333 333q19 19 45 19t45 -19t19 -45v-1088q0 -26 -19 -45t-45 -19t-45 19l-333 333h-262q-26 0 -45 19t-19 45z" />
<glyph unicode="&#xf027;" horiz-adv-x="1152" d="M0 448v384q0 26 19 45t45 19h262l333 333q19 19 45 19t45 -19t19 -45v-1088q0 -26 -19 -45t-45 -19t-45 190BA8170A61" />
<glyph unicode="&#xf028;" horiz-adv-x="1664" d="M0 448v384q0 26 19 45t45 19h262l333 333q19 19 45 19t45 -19t19 -45v-1088q0 -26 -19 -45t-45 -19t-45 19l-333 333h-262q-26 0 -45 19t-19 45zM908 464q0 21 12 35.5t29 25t34 23t29 35.5t12 57t-12 57t-29 35.5t-34 23t-29 25t-12 35.5q0 27 19 45.5t45 18.5 q15 0 25 -5q70 -27 112.5 -93t42.5 -142t-42.5 -141.5t-112.5 -93.5q-10 -5 -25 -5q-26 0 -45 18.5t-19 45.5zM1008 228q0 39 39 59q56 29 76 44q74 54 115.5 135.5t41.5 173.5t-41.5 173.5t-115.5 135.5q-20 15 -76 44q-39 20 -39 59q0 26 19 45t45 19q13 0 26 -5 q140 -59 225 -188.5t85 -282.5t-85 -282.5t-225 -188.5q-13 -5 -25 -5q-27 0 -46 19t-19 45zM1109 -7q0 36 39 59q7 4 22.5 10.5t22.5 10.5q46 25 82 51q123 91 192 227t69 289t-69 289t-192 227q-36 26 -82 51q-7 4 -22.5 10.5t-22.5 10.5q-39 23 -39 59q0 26 19 45t45 19 q13 0 26 -5q211 -91 338 -283.5t127 -422.5t-127 -422.5t-338 -283.5q-13 -5 -26 -5q-26 0 -45 19t-19 45z" />
<glyph unicode="&#xf029;" horiz-adv-x="1408" d="M0 0v640h640v-640h-640zM0 768v640h640v-640h-640zM128 129h384v383h-384v-383zM128 896h384v384h-384v-384zM256 256v128h128v-128h-128zM256 1024v128h128v-128h-128zM768 0v640h384v-128h128v128h128v-384h-384v128h-128v-384h-128zM768 768v640h640v-640h-640z M896 896h384v384h-384v-384zM1024 0v128h128v-128h-128zM1024 1024v128h128v-128h-128zM1280 0v128h128v-128h-128z" />
<glyph unicode="&#xf02a;" horiz-adv-x="1792" d="M0 0v1408h63v-1408h-63zM94 1v1407h32v-1407h-32zM189 1v1407h31v-1407h-31zM346 1v1407h31v-1407h-31zM472 1v1407h62v-1407h-62zM629 1v1407h31v-1407h-31zM692 1v1407h31v-1407h-31zM755 1v1407h31v-1407h-31zM880 1v1407h63v-1407h-63zM1037 1v1407h63v-1407h-63z M1163 1v1407h63v-1407h-63zM1289 1v1407h63v-1407h-63zM1383 1v1407h63v-1407h-63zM1541 1v1407h94v-1407h-94zM1666 1v1407h32v-1407h-32zM1729 0v1408h63v-1408h-63z" />
<glyph unicode="&#xf02b;" d="M0 864v416q0 52 38 90t90 38h416q53 0 117 -26.5t102 -64.5l715 -714q37 -39 37 -91q0 -53 -37 -90l-491 -050B9B0ABC" />
<glyph unicode="&#xf02c;" horiz-adv-x="1920" d="M0 864v416q0 52 38 90t90 38h416q53 0 117 -26.5t102 -64.5l715 -714q37 -39 37 -91q0 -53 -37 -90l-491 -0130588A66" />
<glyph unicode="&#xf02d;" horiz-adv-x="1664" d="M10 184q0 4 3 27t4 37q1 8 -3 21.5t-3 19.5q2 11 8 21t16.5 23.5t16.5 23.5q23 38 45 91.5t30 91.5q3 10 006A9FB0A1C" />
<glyph unicode="&#xf02e;" horiz-adv-x="1280" d="M0 7v1289q0 34 19.5 62t52.5 41q21 9 44 9h1048q23 0 44 -9q33 -13 52.5 -41t19.5 -62v-1289q0 -34 -19.5 0D52BFDA2F" />
<glyph unicode="&#xf02f;" horiz-adv-x="1664" d="M0 160v416q0 79 56.5 135.5t135.5 56.5h64v544q0 40 28 68t68 28h672q40 0 88 -20t76 -48l152 -152q28 -28 48 -76t20 -88v-256h64q79 0 135.5 -56.5t56.5 -135.5v-416q0 -13 -9.5 -22.5t-22.5 -9.5h-224v-160q0 -40 -28 -68t-68 -28h-960q-40 0 -68 28t-28 68v160h-224 q-13 0 -22.5 9.5t-9.5 22.5zM384 0h896v256h-896v-256zM384 640h896v384h-160q-40 0 -68 28t-28 68v160h-640v-640zM1408 576q0 -26 19 -45t45 -19t45 19t19 45t-19 45t-45 19t-45 -19t-19 -45z" />
<glyph unicode="&#xf030;" horiz-adv-x="1920" d="M0 128v896q0 106 75 181t181 75h224l51 136q19 49 69.5 84.5t103.5 35.5h512q53 0 103.5 -35.5t69.5 -84.5093DA65A22" />
<glyph unicode="&#xf031;" horiz-adv-x="1664" d="M0 -128l2 79q23 7 56 12.5t57 10.5t49.5 14.5t44.5 29t31 50.5l237 616l280 724h75h53q8 -14 11 -21l205 -480q33 -78 106 -257.5t114 -274.5q15 -34 58 -144.5t72 -168.5q20 -45 35 -57q19 -15 88 -29.5t84 -20.5q6 -38 6 -57q0 -4 -0.5 -13t-0.5 -13q-63 0 -190 8 t-191 8q-76 0 -215 -7t-178 -8q0 43 4 78l131 28q1 0 12.5 2.5t15.5 3.5t14.5 4.5t15 6.5t11 8t9 11t2.5 14q0 16 -31 96.5t-72 177.5t-42 100l-450 2q-26 -58 -76.5 -195.5t-50.5 -162.5q0 -22 14 -37.5t43.5 -24.5t48.5 -13.5t57 -8.5t41 -4q1 -19 1 -58q0 -9 -2 -27 q-58 0 -174.5 10t-174.5 10q-8 0 -26.5 -4t-21.5 -4q-80 -14 -188 -14zM555 527q33 0 136.5 -2t160.5 -2q19 0 57 2q-87 253 -184 452z" />
<glyph unicode="&#xf032;" horiz-adv-x="1408" d="M0 -128l2 94q15 4 85 16t106 27q7 12 12.5 27t8.5 33.5t5.5 32.5t3 37.5t0.5 34v35.5v30q0 982 -22 1025q-0C105C6AFE" />
<glyph unicode="&#xf033;" horiz-adv-x="1024" d="M0 -126l17 85q6 2 81.5 21.5t111.5 37.5q28 35 41 101q1 7 62 289t114 543.5t52 296.5v25q-24 13 -54.5 18.5t-69.5 8t-58 5.5l19 103q33 -2 120 -6.5t149.5 -7t120.5 -2.5q48 0 98.5 2.5t121 7t98.5 6.5q-5 -39 -19 -89q-30 -10 -101.5 -28.5t-108.5 -33.5 q-8 -19 -14 -42.5t-9 -40t-7.5 -45.5t-6.5 -42q-27 -148 -87.5 -419.5t-77.5 -355.5q-2 -9 -13 -58t-20 -90t-16 -83.5t-6 -57.5l1 -18q17 -4 185 -31q-3 -44 -16 -99q-11 0 -32.5 -1.5t-32.5 -1.5q-29 0 -87 10t-86 10q-138 2 -206 2q-51 0 -143 -9t-121 -11z" />
<glyph unicode="&#xf034;" horiz-adv-x="1792" d="M0 1023v383l81 1l54 -27q12 -5 211 -5q44 0 132 2t132 2q36 0 107.5 -0.5t107.5 -0.5h293q6 0 21 -0.5t20.003258EAC7" />
<glyph unicode="&#xf035;" d="M0 1023v383l81 1l54 -27q12 -5 211 -5q44 0 132 2t132 2q70 0 246.5 1t304.5 0.5t247 -4.5q33 -1 56 31l42 1q4 0 14 -0.5t14 -0.5q2 -112 2 -336q0 -80 -5 -109q-39 -14 -68 -18q-25 44 -54 128q-3 9 -11 47.5t-15 73.5t-7 36q-10 13 -27 19q-5 2 -66 2q-30 0 -93 1 t-103 1t-94 -2t-96 -7q-9 -81 -8 -136l1 -152v52q0 -55 1 -154t1.5 -180t0.5 -153q0 -16 -2.5 -71.5t0 -91.5t12.5 -69q40 -21 124 -42.5t120 -37.5q5 -40 5 -50q0 -14 -3 -29l-34 -1q-76 -2 -218 8t-207 10q-50 0 -151 -9t-152 -9q-3 51 -3 52v9q17 27 61.5 43t98.5 29 t78 27q7 16 11.5 74t6 145.5t1.5 155t-0.5 153.5t-0.5 89q0 7 -2.5 21.5t-2.5 22.5q0 7 0.5 44t1 73t0 76.5t-3 67.5t-6.5 32q-11 12 -162 12q-41 0 -163 -13.5t-138 -24.5q-19 -12 -34 -71.5t-31.5 -111.5t-42.5 -54q-42 26 -56 44zM5 -64q0 28 26 49q4 3 36 30t59.5 49 t57.5 41.5t42 19.5q13 0 20.5 -10.5t10 -28.5t2.5 -33.5t-1.5 -33t-1.5 -19.5h1024q0 2 -1.5 19.5t-1.5 33t2.5 33.5t10 28.5t20.5 10.5q12 0 42 -19.5t57.5 -41.5t59.5 -49t36 -30q26 -21 26 -49t-26 -49q-4 -3 -36 -30t-59.5 -49t-57.5 -41.5t-42 -19.5q-13 0 -20.5 10.5 t-10 28.5t-2.5 33.5t1.5 33t1.5 19.5h-1024q0 -2 1.5 -19.5t1.5 -33t-2.5 -33.5t-10 -28.5t-20.5 -10.5q-12 0 -42 19.5t-57.5 41.5t-59.5 49t-36 30q-26 21 -26 49z" />
<glyph unicode="&#xf036;" horiz-adv-x="1792" d="M0 64v128q0 26 19 45t45 19h1664q26 0 45 -19t19 -45v-128q0 -26 -19 -45t-45 -19h-1664q-26 0 -45 19t-19 45zM0 448v128q0 26 19 45t45 19h1280q26 0 45 -19t19 -45v-128q0 -26 -19 -45t-45 -19h-1280q-26 0 -45 19t-19 45zM0 832v128q0 26 19 45t45 19h1536 q26 0 45 -19t19 -45v-128q0 -26 -19 -45t-45 -19h-1536q-26 0 -45 19t-19 45zM0 1216v128q0 26 19 45t45 19h1152q26 0 45 -19t19 -45v-128q0 -26 -19 -45t-45 -19h-1152q-26 0 -45 19t-19 45z" />
<glyph unicode="&#xf037;" horiz-adv-x="1792" d="M0 64v128q0 26 19 45t45 19h1664q26 0 45 -19t19 -45v-128q0 -26 -19 -45t-45 -19h-1664q-26 0 -45 19t-19 45zM128 832v128q0 26 19 45t45 19h1408q26 0 45 -19t19 -45v-128q0 -26 -19 -45t-45 -19h-1408q-26 0 -45 19t-19 45zM384 448v128q0 26 19 45t45 19h896 q26 0 45 -19t19 -45v-128q0 -26 -19 -45t-45 -19h-896q-26 0 -45 19t-19 45zM512 1216v128q0 26 19 45t45 19h640q26 0 45 -19t19 -45v-128q0 -26 -19 -45t-45 -19h-640q-26 0 -45 19t-19 45z" />
<glyph unicode="&#xf038;" horiz-adv-x="1792" d="M0 64v128q0 26 19 45t45 19h1664q26 0 45 -19t19 -45v-128q0 -26 -19 -45t-45 -19h-1664q-26 0 -45 19t-19 45zM128 832v128q0 26 19 45t45 19h1536q26 0 45 -19t19 -45v-128q0 -26 -19 -45t-45 -19h-1536q-26 0 -45 19t-19 45zM384 448v128q0 26 19 45t45 19h1280 q26 0 45 -19t19 -45v-128q0 -26 -19 -45t-45 -19h-1280q-26 0 -45 19t-19 45zM512 1216v128q0 26 19 45t45 19h1152q26 0 45 -19t19 -45v-128q0 -26 -19 -45t-45 -19h-1152q-26 0 -45 19t-19 45z" />
<glyph unicode="&#xf039;" horiz-adv-x="1792" d="M0 64v128q0 26 19 45t45 19h1664q26 0 45 -19t19 -45v-128q0 -26 -19 -45t-45 -19h-1664q-26 0 -45 19t-19 45zM0 448v128q0 26 19 45t45 19h1664q26 0 45 -19t19 -45v-128q0 -26 -19 -45t-45 -19h-1664q-26 0 -45 19t-19 45zM0 832v128q0 26 19 45t45 19h1664 q26 0 45 -19t19 -45v-128q0 -26 -19 -45t-45 -19h-1664q-26 0 -45 19t-19 45zM0 1216v128q0 26 19 45t45 19h1664q26 0 45 -19t19 -45v-128q0 -26 -19 -45t-45 -19h-1664q-26 0 -45 19t-19 45z" />
<glyph unicode="&#xf03a;" horiz-adv-x="1792" d="M0 32v192q0 13 9.5 22.5t22.5 9.5h192q13 0 22.5 -9.5t9.5 -22.5v-192q0 -13 -9.5 -22.5t-22.5 -9.5h-192q0B0E8B9ACF" />
<glyph unicode="&#xf03b;" horiz-adv-x="1792" d="M0 32v192q0 13 9.5 22.5t22.5 9.5h1728q13 0 22.5 -9.5t9.5 -22.5v-192q0 -13 -9.5 -22.5t-22.5 -9.5h-1720571D37A0E" />
<glyph unicode="&#xf03c;" horiz-adv-x="1792" d="M0 32v192q0 13 9.5 22.5t22.5 9.5h1728q13 0 22.5 -9.5t9.5 -22.5v-192q0 -13 -9.5 -22.5t-22.5 -9.5h-1720B25A7DA61" />
<glyph unicode="&#xf03d;" horiz-adv-x="1792" d="M0 288v704q0 119 84.5 203.5t203.5 84.5h704q119 0 203.5 -84.5t84.5 -203.5v-165l403 402q18 19 45 19q120FD6C7EA94" />
<glyph unicode="&#xf03e;" horiz-adv-x="1920" d="M0 32v1216q0 66 47 113t113 47h1600q66 0 113 -47t47 -113v-1216q0 -66 -47 -113t-113 -47h-1600q-66 0 -113 47t-47 113zM128 32q0 -13 9.5 -22.5t22.5 -9.5h1600q13 0 22.5 9.5t9.5 22.5v1216q0 13 -9.5 22.5t-22.5 9.5h-1600q-13 0 -22.5 -9.5t-9.5 -22.5v-1216z M256 128v192l320 320l160 -160l512 512l416 -416v-448h-1408zM256 960q0 80 56 136t136 56t136 -56t56 -136t-56 -136t-136 -56t-136 56t-56 136z" />
<glyph unicode="&#xf040;" d="M0 -128v416l832 832l416 -416l-832 -832h-416zM128 128h128v-128h107l91 91l-235 235l-91 -91v-107zM298 384q0 -22 22 -22q10 0 17 7l542 542q7 7 7 17q0 22 -22 22q-10 0 -17 -7l-542 -542q-7 -7 -7 -17zM896 1184l166 165q36 38 90 38q53 0 91 -38l235 -234 q37 -39 37 -91q0 -53 -37 -90l-166 -166z" />
<glyph unicode="&#xf041;" horiz-adv-x="1024" d="M0 896q0 212 150 362t362 150t362 -150t150 -362q0 -109 -33 -179l-364 -774q-16 -33 -47.5 -52t-67.5 -19t-67.5 19t-46.5 52l-365 774q-33 70 -33 179zM256 896q0 -106 75 -181t181 -75t181 75t75 181t-75 181t-181 75t-181 -75t-75 -181z" />
<glyph unicode="&#xf042;" d="M0 640q0 209 103 385.5t279.5 279.5t385.5 103t385.5 -103t279.5 -279.5t103 -385.5t-103 -385.5t-279.5 -279.5t-385.5 -103t-385.5 103t-279.5 279.5t-103 385.5zM224 640q0 -148 73 -273t198 -198t273 -73v1088q-148 0 -273 -73t-198 -198t-73 -273z" />
<glyph unicode="&#xf043;" horiz-adv-x="1024" d="M0 512q0 145 81 275q6 9 62.5 90.5t101 151t99.5 178t83 201.5q9 30 34 47t51 17t51.5 -17t33.5 -47q28 -93 83 -201.5t99.5 -178t101 -151t62.5 -90.5q81 -127 81 -275q0 -212 -150 -362t-362 -150t-362 150t-150 362zM256 384q0 -53 37.5 -90.5t90.5 -37.5t90.5 37.5 t37.5 90.5q0 36 -20 69q-1 1 -15.5 22.5t-25.5 38t-25 44t-21 50.5q-4 16 -21 16t-21 -16q-7 -23 -21 -50.5t-25 -44t-25.5 -38t-15.5 -22.5q-20 -33 -20 -69z" />
<glyph unicode="&#xf044;" horiz-adv-x="1792" d="M0 288v832q0 119 84.5 203.5t203.5 84.5h832q63 0 117 -25q15 -7 18 -23q3 -17 -9 -29l-49 -49q-14 -14 -32 -8q-23 6 -45 6h-832q-66 0 -113 -47t-47 -113v-832q0 -66 47 -113t113 -47h832q66 0 113 47t47 113v126q0 13 9 22l64 64q15 15 35 7t20 -29v-190 q0 -119 -84.5 -203.5t-203.5 -84.5h-832q-119 0 -203.5 84.5t-84.5 203.5zM640 256v288l672 672l288 -288l-672 -672h-288zM736 448h96v-96h56l116 116l-152 152l-116 -116v-56zM944 688q16 -16 33 1l350 350q17 17 1 33t-33 -1l-350 -350q-17 -17 -1 -33zM1376 1280l92 92 q28 28 68 28t68 -28l152 -152q28 -28 28 -68t-28 -68l-92 -92z" />
<glyph unicode="&#xf045;" horiz-adv-x="1664" d="M0 288v832q0 119 84.5 203.5t203.5 84.5h255q13 0 22.5 -9.5t9.5 -22.5q0 -27 -26 -32q-77 -26 -133 -60q-10 -4 -16 -4h-112q-66 0 -113 -47t-47 -113v-832q0 -66 47 -113t113 -47h832q66 0 113 47t47 113v214q0 19 18 29q28 13 54 37q16 16 35 8q21 -9 21 -29v-259 q0 -119 -84.5 -203.5t-203.5 -84.5h-832q-119 0 -203.5 84.5t-84.5 203.5zM256 704q0 49 3.5 91t14 90t28 88t47 81.5t68.5 74t94.5 61.5t124.5 48.5t159.5 30.5t196.5 11h160v192q0 42 39 59q13 5 25 5q26 0 45 -19l384 -384q19 -19 19 -45t-19 -45l-384 -384 q-18 -19 -45 -19q-12 0 -25 5q-39 17 -39 59v192h-160q-323 0 -438 -131q-119 -137 -74 -473q3 -23 -20 -34q-8 -2 -12 -2q-16 0 -26 13q-10 14 -21 31t-39.5 68.5t-49.5 99.5t-38.5 114t-17.5 122z" />
<glyph unicode="&#xf046;" horiz-adv-x="1664" d="M0 288v832q0 119 84.5 203.5t203.5 84.5h832q63 0 117 -25q15 -7 18 -23q3 -17 -9 -29l-49 -49q-10 -10 -23 -10q-3 0 -9 2q-23 6 -45 6h-832q-66 0 -113 -47t-47 -113v-832q0 -66 47 -113t113 -47h832q66 0 113 47t47 113v254q0 13 9 22l64 64q10 10 23 10q6 0 12 -3 q20 -8 20 -29v-318q0 -119 -84.5 -203.5t-203.5 -84.5h-832q-119 0 -203.5 84.5t-84.5 203.5zM257 768q0 33 24 57l110 110q24 24 57 24t57 -24l263 -263l647 647q24 24 57 24t57 -24l110 -110q24 -24 24 -57t-24 -57l-814 -814q-24 -24 -57 -24t-57 24l-430 430 q-24 24 -24 57z" />
<glyph unicode="&#xf047;" horiz-adv-x="1792" d="M0 640q0 26 19 45l256 256q19 19 45 19t45 -19t19 -45v-128h384v384h-128q-26 0 -45 19t-19 45t19 45l256 256q19 19 45 19t45 -19l256 -256q19 -19 19 -45t-19 -45t-45 -19h-128v-384h384v128q0 26 19 45t45 19t45 -19l256 -256q19 -19 19 -45t-19 -45l-256 -256 q-19 -19 -45 -19t-45 19t-19 45v128h-384v-384h128q26 0 45 -19t19 -45t-19 -45l-256 -256q-19 -19 -45 -19t-45 19l-256 256q-19 19 -19 45t19 45t45 19h128v384h-384v-128q0 -26 -19 -45t-45 -19t-45 19l-256 256q-19 19 -19 45z" />
<glyph unicode="&#xf048;" horiz-adv-x="1024" d="M0 -64v1408q0 26 19 45t45 19h128q26 0 45 -19t19 -45v-678q4 11 13 19l710 710q19 19 32 13t13 -32v-1472q0 -26 -13 -32t-32 13l-710 710q-9 9 -13 19v-678q0 -26 -19 -45t-45 -19h-128q-26 0 -45 19t-19 45z" />
<glyph unicode="&#xf049;" horiz-adv-x="1792" d="M0 -64v1408q0 26 19 45t45 19h128q26 0 45 -19t19 -45v-678q4 11 13 19l710 710q19 19 32 13t13 -32v-710q4 11 13 19l710 710q19 19 32 13t13 -32v-1472q0 -26 -13 -32t-32 13l-710 710q-9 9 -13 19v-710q0 -26 -13 -32t-32 13l-710 710q-9 9 -13 19v-678q0 -26 -19 -45 t-45 -19h-128q-26 0 -45 19t-19 45z" />
<glyph unicode="&#xf04a;" horiz-adv-x="1664" d="M122 640q0 26 19 45l710 710q19 19 32 13t13 -32v-710q5 11 13 19l710 710q19 19 32 13t13 -32v-1472q0 -26 -13 -32t-32 13l-710 710q-8 9 -13 19v-710q0 -26 -13 -32t-32 13l-710 710q-19 19 -19 45z" />
<glyph unicode="&#xf04b;" horiz-adv-x="1408" d="M0 -96v1472q0 26 16.5 36t39.5 -3l1328 -738q23 -13 23 -31t-23 -31l-1328 -738q-23 -13 -39.5 -3t-16.5 36z" />
<glyph unicode="&#xf04c;" d="M0 -64v1408q0 26 19 45t45 19h512q26 0 45 -19t19 -45v-1408q0 -26 -19 -45t-45 -19h-512q-26 0 -45 19t-19 45zM896 -64v1408q0 26 19 45t45 19h512q26 0 45 -19t19 -45v-1408q0 -26 -19 -45t-45 -19h-512q-26 0 -45 19t-19 45z" />
<glyph unicode="&#xf04d;" d="M0 -64v1408q0 26 19 45t45 19h1408q26 0 45 -19t19 -45v-1408q0 -26 -19 -45t-45 -19h-1408q-26 0 -45 19t-19 45z" />
<glyph unicode="&#xf04e;" horiz-adv-x="1664" d="M0 -96v1472q0 26 13 32t32 -13l710 -710q8 -8 13 -19v710q0 26 13 32t32 -13l710 -710q19 -19 19 -45t-19 -45l-710 -710q-19 -19 -32 -13t-13 32v710q-5 -10 -13 -19l-710 -710q-19 -19 -32 -13t-13 32z" />
<glyph unicode="&#xf050;" horiz-adv-x="1792" d="M0 -96v1472q0 26 13 32t32 -13l710 -710q8 -8 13 -19v710q0 26 13 32t32 -13l710 -710q8 -8 13 -19v678q0 26 19 45t45 19h128q26 0 45 -19t19 -45v-1408q0 -26 -19 -45t-45 -19h-128q-26 0 -45 19t-19 45v678q-5 -10 -13 -19l-710 -710q-19 -19 -32 -13t-13 32v710 q-5 -10 -13 -19l-710 -710q-19 -19 -32 -13t-13 32z" />
<glyph unicode="&#xf051;" horiz-adv-x="1024" d="M0 -96v1472q0 26 13 32t32 -13l710 -710q8 -8 13 -19v678q0 26 19 45t45 19h128q26 0 45 -19t19 -45v-1408q0 -26 -19 -45t-45 -19h-128q-26 0 -45 19t-19 45v678q-5 -10 -13 -19l-710 -710q-19 -19 -32 -13t-13 32z" />
<glyph unicode="&#xf052;" horiz-adv-x="1538" d="M1 64v256q0 26 19 45t45 19h1408q26 0 45 -19t19 -45v-256q0 -26 -19 -45t-45 -19h-1408q-26 0 -45 19t-19 45zM1 525q-6 13 13 32l710 710q19 19 45 19t45 -19l710 -710q19 -19 13 -32t-32 -13h-1472q-26 0 -32 13z" />
<glyph unicode="&#xf053;" horiz-adv-x="1280" d="M154 704q0 26 19 45l742 742q19 19 45 19t45 -19l166 -166q19 -19 19 -45t-19 -45l-531 -531l531 -531q19 -19 19 -45t-19 -45l-166 -166q-19 -19 -45 -19t-45 19l-742 742q-19 19 -19 45z" />
<glyph unicode="&#xf054;" horiz-adv-x="1280" d="M90 128q0 26 19 45l531 531l-531 531q-19 19 -19 45t19 45l166 166q19 19 45 19t45 -19l742 -742q19 -19 19 -45t-19 -45l-742 -742q-19 -19 -45 -19t-45 19l-166 166q-19 19 -19 45z" />
<glyph unicode="&#xf055;" d="M0 640q0 209 103 385.5t279.5 279.5t385.5 103t385.5 -103t279.5 -279.5t103 -385.5t-103 -385.5t-279.5 -279.5t-385.5 -103t-385.5 103t-279.5 279.5t-103 385.5zM320 576q0 -26 19 -45t45 -19h256v-256q0 -26 19 -45t45 -19h128q26 0 45 19t19 45v256h256q26 0 45 19 t19 45v128q0 26 -19 45t-45 19h-256v256q0 26 -19 45t-45 19h-128q-26 0 -45 -19t-19 -45v-256h-256q-26 0 -45 -19t-19 -45v-128z" />
<glyph unicode="&#xf056;" d="M0 640q0 209 103 385.5t279.5 279.5t385.5 103t385.5 -103t279.5 -279.5t103 -385.5t-103 -385.5t-279.5 -279.5t-385.5 -103t-385.5 103t-279.5 279.5t-103 385.5zM320 576q0 -26 19 -45t45 -19h768q26 0 45 19t19 45v128q0 26 -19 45t-45 19h-768q-26 0 -45 -19 t-19 -45v-128z" />
<glyph unicode="&#xf057;" d="M0 640q0 209 103 385.5t279.5 279.5t385.5 103t385.5 -103t279.5 -279.5t103 -385.5t-103 -385.5t-279.5 -279.5t-385.5 -103t-385.5 103t-279.5 279.5t-103 385.5zM387 414q0 -27 19 -46l90 -90q19 -19 46 -19q26 0 45 19l181 181l181 -181q19 -19 45 -19q27 0 46 19 l90 90q19 19 19 46q0 26 -19 45l-181 181l181 181q19 19 19 45q0 27 -19 46l-90 90q-19 19 -46 19q-26 0 -45 -19l-181 -181l-181 181q-19 19 -45 19q-27 0 -46 -19l-90 -90q-19 -19 -19 -46q0 -26 19 -45l181 -181l-181 -181q-19 -19 -19 -45z" />
<glyph unicode="&#xf058;" d="M0 640q0 209 103 385.5t279.5 279.5t385.5 103t385.5 -103t279.5 -279.5t103 -385.5t-103 -385.5t-279.5 -279.5t-385.5 -103t-385.5 103t-279.5 279.5t-103 385.5zM252 621q0 -27 18 -45l362 -362q19 -19 45 -19q27 0 46 19l543 543q18 18 18 45q0 28 -18 46l-91 90 q-19 19 -45 19t-45 -19l-408 -407l-226 226q-19 19 -45 19t-45 -19l-91 -90q-18 -18 -18 -46z" />
<glyph unicode="&#xf059;" d="M0 640q0 209 103 385.5t279.5 279.5t385.5 103t385.5 -103t279.5 -279.5t103 -385.5t-103 -385.5t-279.5 -279.5t-385.5 -103t-385.5 103t-279.5 279.5t-103 385.5zM417 939q-15 -24 8 -42l132 -100q7 -6 19 -6q16 0 25 12q53 68 86 92q34 24 86 24q48 0 85.5 -26 t37.5 -59q0 -38 -20 -61t-68 -45q-63 -28 -115.5 -86.5t-52.5 -125.5v-36q0 -14 9 -23t23 -9h192q14 0 23 9t9 23q0 19 21.5 49.5t54.5 49.5q32 18 49 28.5t46 35t44.5 48t28 60.5t12.5 81q0 88 -55.5 163t-138.5 116t-170 41q-243 0 -371 -213zM640 160q0 -14 9 -23t23 -9 h192q14 0 23 9t9 23v192q0 14 -9 23t-23 9h-192q-14 0 -23 -9t-9 -23v-192z" />
<glyph unicode="&#xf05a;" d="M0 640q0 209 103 385.5t279.5 279.5t385.5 103t385.5 -103t279.5 -279.5t103 -385.5t-103 -385.5t-279.5 -279.5t-385.5 -103t-385.5 103t-279.5 279.5t-103 385.5zM512 160q0 -14 9 -23t23 -9h448q14 0 23 9t9 23v160q0 14 -9 23t-23 9h-96v512q0 14 -9 23t-23 9h-320 q-14 0 -23 -9t-9 -23v-160q0 -14 9 -23t23 -9h96v-320h-96q-14 0 -23 -9t-9 -23v-160zM640 1056q0 -14 9 -23t23 -9h192q14 0 23 9t9 23v160q0 14 -9 23t-23 9h-192q-14 0 -23 -9t-9 -23v-160z" />
<glyph unicode="&#xf05b;" d="M0 576v128q0 26 19 45t45 19h143q37 161 154.5 278.5t278.5 154.5v143q0 26 19 45t45 19h128q26 0 45 -19t19 -45v-143q161 -37 278.5 -154.5t154.5 -278.5h143q26 0 45 -19t19 -45v-128q0 -26 -19 -45t-45 -19h-143q-37 -161 -154.5 -278.5t-278.5 -154.5v-143 q0 -26 -19 -45t-45 -19h-128q-26 0 -45 19t-19 45v143q-161 37 -278.5 154.5t-154.5 278.5h-143q-26 0 -45 19t-19 45zM339 512q32 -108 112.5 -188.5t188.5 -112.5v109q0 26 19 45t45 19h128q26 0 45 -19t19 -45v-109q108 32 188.5 112.5t112.5 188.5h-109q-26 0 -45 19 t-19 45v128q0 26 19 45t45 19h109q-32 108 -112.5 188.5t-188.5 112.5v-109q0 -26 -19 -45t-45 -19h-128q-26 0 -45 19t-19 45v109q-108 -32 -188.5 -112.5t-112.5 -188.5h109q26 0 45 -19t19 -45v-128q0 -26 -19 -45t-45 -19h-109z" />
<glyph unicode="&#xf05c;" d="M0 640q0 209 103 385.5t279.5 279.5t385.5 103t385.5 -103t279.5 -279.5t103 -385.5t-103 -385.5t-279.5 -279.5t-385.5 -103t-385.5 103t-279.5 279.5t-103 385.5zM224 640q0 -148 73 -273t198 -198t273 -73t273 73t198 198t73 273t-73 273t-198 198t-273 73t-273 -73 t-198 -198t-73 -273zM429 480q0 13 10 23l137 137l-137 137q-10 10 -10 23t10 23l146 146q10 10 23 10t23 -10l137 -137l137 137q10 10 23 10t23 -10l146 -146q10 -10 10 -23t-10 -23l-137 -137l137 -137q10 -10 10 -23t-10 -23l-146 -146q-10 -10 -23 -10t-23 10l-137 137 l-137 -137q-10 -10 -23 -10t-23 10l-146 146q-10 10 -10 23z" />
<glyph unicode="&#xf05d;" d="M0 640q0 209 103 385.5t279.5 279.5t385.5 103t385.5 -103t279.5 -279.5t103 -385.5t-103 -385.5t-279.5 -279.5t-385.5 -103t-385.5 103t-279.5 279.5t-103 385.5zM224 640q0 -148 73 -273t198 -198t273 -73t273 73t198 198t73 273t-73 273t-198 198t-273 73t-273 -73 t-198 -198t-73 -273zM346 640q0 26 19 45l102 102q19 19 45 19t45 -19l147 -147l275 275q19 19 45 19t45 -19l102 -102q19 -19 19 -45t-19 -45l-422 -422q-19 -19 -45 -19t-45 19l-294 294q-19 19 -19 45z" />
<glyph unicode="&#xf05e;" d="M0 643q0 157 61 299.5t163.5 245.5t245 164t298.5 61t298.5 -61t245 -164t163.5 -245.5t61 -299.5t-61 -300t-163.5 -246t-245 -164t-298.5 -61t-298.5 61t-245 164t-163.5 246t-61 300zM224 643q0 -162 89 -299l755 754q-135 91 -300 91q-148 0 -273 -73t-198 -199 t-73 -274zM471 185q137 -89 297 -89q111 0 211.5 43.5t173.5 116.5t116 174.5t43 212.5q0 161 -87 295z" />
<glyph unicode="&#xf060;" d="M64 576q0 52 37 91l651 650q38 38 91 38q52 0 90 -38l75 -74q38 -38 38 -91t-38 -91l-293 -293h704q52 0 84.5 -37.5t32.5 -90.5v-128q0 -53 -32.5 -90.5t-84.5 -37.5h-704l293 -294q38 -36 38 -90t-38 -90l-75 -76q-37 -37 -90 -37q-52 0 -91 37l-651 652q-37 37 -37 90 z" />
<glyph unicode="&#xf061;" d="M0 512v128q0 53 32.5 90.5t84.5 37.5h704l-293 294q-38 36 -38 90t38 90l75 75q38 38 90 38q53 0 91 -38l601D0A2AABA" />
<glyph unicode="&#xf062;" horiz-adv-x="1664" d="M53 565q0 53 38 91l651 651q35 37 90 37q54 0 91 -37l651 -651q37 -39 37 -91q0 -51 -37 -90l-75 -75q-38 -38 -91 -38q-54 0 -90 38l-294 293v-704q0 -52 -37.5 -84.5t-90.5 -32.5h-128q-53 0 -90.5 32.5t-37.5 84.5v704l-294 -293q-36 -38 -90 -38t-90 38l-75 75 q-38 38 -38 90z" />
<glyph unicode="&#xf063;" horiz-adv-x="1664" d="M53 704q0 53 38 91l74 75q39 37 91 37q53 0 90 -37l294 -294v704q0 52 38 90t90 38h128q52 0 90 -38t38 -90v-704l294 294q37 37 90 37q52 0 91 -37l75 -75q37 -39 37 -91q0 -53 -37 -90l-651 -652q-39 -37 -91 -37q-53 0 -90 37l-651 652q-38 36 -38 90z" />
<glyph unicode="&#xf064;" horiz-adv-x="1792" d="M0 416q0 199 53 333q162 403 875 403h224v256q0 26 19 45t45 19t45 -19l512 -512q19 -19 19 -45t-19 -45l-512 -512q-19 -19 -45 -19t-45 19t-19 45v256h-224q-98 0 -175.5 -6t-154 -21.5t-133 -42.5t-105.5 -69.5t-80 -101t-48.5 -138.5t-17.5 -181q0 -55 5 -123 q0 -6 2.5 -23.5t2.5 -26.5q0 -15 -8.5 -25t-23.5 -10q-16 0 -28 17q-7 9 -13 22t-13.5 30t-10.5 24q-127 285 -127 451z" />
<glyph unicode="&#xf065;" d="M0 -64v448q0 26 19 45t45 19t45 -19l144 -144l332 332q10 10 23 10t23 -10l114 -114q10 -10 10 -23t-10 -23l-332 -332l144 -144q19 -19 19 -45t-19 -45t-45 -19h-448q-26 0 -45 19t-19 45zM781 800q0 13 10 23l332 332l-144 144q-19 19 -19 45t19 45t45 19h448 q26 0 45 -19t19 -45v-448q0 -26 -19 -45t-45 -19t-45 19l-144 144l-332 -332q-10 -10 -23 -10t-23 10l-114 114q-10 10 -10 23z" />
<glyph unicode="&#xf066;" d="M13 32q0 13 10 23l332 332l-144 144q-19 19 -19 45t19 45t45 19h448q26 0 45 -19t19 -45v-448q0 -26 -19 -45t-45 -19t-45 19l-144 144l-332 -332q-10 -10 -23 -10t-23 10l-114 114q-10 10 -10 23zM768 704v448q0 26 19 45t45 19t45 -19l144 -144l332 332q10 10 23 10 t23 -10l114 -114q10 -10 10 -23t-10 -23l-332 -332l144 -144q19 -19 19 -45t-19 -45t-45 -19h-448q-26 0 -45 19t-19 45z" />
<glyph unicode="&#xf067;" horiz-adv-x="1408" d="M0 608v192q0 40 28 68t68 28h416v416q0 40 28 68t68 28h192q40 0 68 -28t28 -68v-416h416q40 0 68 -28t28 -68v-192q0 -40 -28 -68t-68 -28h-416v-416q0 -40 -28 -68t-68 -28h-192q-40 0 -68 28t-28 68v416h-416q-40 0 -68 28t-28 68z" />
<glyph unicode="&#xf068;" horiz-adv-x="1408" d="M0 608v192q0 40 28 68t68 28h1216q40 0 68 -28t28 -68v-192q0 -40 -28 -68t-68 -28h-1216q-40 0 -68 28t-28 68z" />
<glyph unicode="&#xf069;" horiz-adv-x="1664" d="M122.5 408.5q13.5 51.5 59.5 77.5l266 154l-266 154q-46 26 -59.5 77.5t12.5 97.5l64 110q26 46 77.5 59.50648448A55" />
<glyph unicode="&#xf06a;" d="M0 640q0 209 103 385.5t279.5 279.5t385.5 103t385.5 -103t279.5 -279.5t103 -385.5t-103 -385.5t-279.5 -279.5t-385.5 -103t-385.5 103t-279.5 279.5t-103 385.5zM624 1126l17 -621q0 -10 10 -17.5t24 -7.5h185q14 0 23.5 7.5t10.5 17.5l18 621q0 12 -10 18 q-10 8 -24 8h-220q-14 0 -24 -8q-10 -6 -10 -18zM640 161q0 -13 10 -23t23 -10h192q13 0 22 9.5t9 23.5v190q0 14 -9 23.5t-22 9.5h-192q-13 0 -23 -10t-10 -23v-190z" />
<glyph unicode="&#xf06b;" d="M0 544v320q0 14 9 23t23 9h440q-93 0 -158.5 65.5t-65.5 158.5t65.5 158.5t158.5 65.5q107 0 168 -77l128 -165l128 165q61 77 168 77q93 0 158.5 -65.5t65.5 -158.5t-65.5 -158.5t-158.5 -65.5h440q14 0 23 -9t9 -23v-320q0 -14 -9 -23t-23 -9h-96v-416q0 -40 -28 -68 t-68 -28h-1088q-40 0 -68 28t-28 68v416h-96q-14 0 -23 9t-9 23zM376 1120q0 -40 28 -68t68 -28h195l-126 161q-26 31 -69 31q-40 0 -68 -28t-28 -68zM608 180q0 -25 18 -38.5t46 -13.5h192q28 0 46 13.5t18 38.5v56v468v192h-320v-192v-468v-56zM870 1024h194q40 0 68 28 t28 68t-28 68t-68 28q-43 0 -69 -31z" />
<glyph unicode="&#xf06c;" horiz-adv-x="1792" d="M0 121q0 35 31 73.5t68 65.5t68 56t31 48q0 4 -14 38t-16 44q-9 51 -9 104q0 115 43.5 220t119 184.5t170.5 139t204 95.5q55 18 145 25.5t179.5 9t178.5 6t163.5 24t113.5 56.5l29.5 29.5t29.5 28t27 20t36.5 16t43.5 4.5q39 0 70.5 -46t47.5 -112t24 -124t8 -96 q0 -95 -20 -193q-46 -224 -184.5 -383t-357.5 -268q-214 -108 -438 -108q-148 0 -286 47q-15 5 -88 42t-96 37q-16 0 -39.5 -32t-45 -70t-52.5 -70t-60 -32q-30 0 -51 11t-31 24t-27 42q-2 4 -6 11t-5.5 10t-3 9.5t-1.5 13.5zM384 448q0 -26 19 -45t45 -19q24 0 45 19 q27 24 74 71t67 66q137 124 268.5 176t313.5 52q26 0 45 19t19 45t-19 45t-45 19q-172 0 -318 -49.5t-259.5 -134t-235.5 -219.5q-19 -21 -19 -45z" />
<glyph unicode="&#xf06d;" horiz-adv-x="1408" d="M0 -160q0 13 9.5 22.5t22.5 9.5h1344q13 0 22.5 -9.5t9.5 -22.5v-64q0 -13 -9.5 -22.5t-22.5 -9.5h-1344q-13 0 -22.5 9.5t-9.5 22.5v64zM256 640q0 78 24.5 144t64 112.5t87.5 88t96 77.5t87.5 72t64 81.5t24.5 96.5q0 94 -66 224l3 -1l-1 1q90 -41 160 -83t138.5 -100 t113.5 -122.5t72.5 -150.5t27.5 -184q0 -78 -24.5 -144t-64 -112.5t-87.5 -88t-96 -77.5t-87.5 -72t-64 -81.5t-24.5 -96.5q0 -96 67 -224l-4 1l1 -1q-90 41 -160 83t-138.5 100t-113.5 122.5t-72.5 150.5t-27.5 184z" />
<glyph unicode="&#xf06e;" horiz-adv-x="1792" d="M0 576q0 34 20 69q140 229 376.5 368t499.5 139t499.5 -139t376.5 -368q20 -35 20 -69t-20 -69q-140 -230 0AF2B34A28" />
<glyph unicode="&#xf070;" horiz-adv-x="1792" d="M0 576q0 38 20 69q153 235 380 371t496 136q89 0 180 -17l54 97q10 16 28 16q5 0 18 -6t31 -15.5t33 -18.509923D3AF4" />
<glyph unicode="&#xf071;" horiz-adv-x="1792" d="M16 61l768 1408q17 31 47 49t65 18t65 -18t47 -49l768 -1408q35 -63 -2 -126q-17 -29 -46.5 -46t-63.5 -17h-1536q-34 0 -63.5 17t-46.5 46q-37 63 -2 126zM752 992l17 -457q0 -10 10 -16.5t24 -6.5h185q14 0 23.5 6.5t10.5 16.5l18 459q0 12 -10 19q-13 11 -24 11h-220 q-11 0 -24 -11q-10 -7 -10 -21zM768 161q0 -14 9.5 -23.5t22.5 -9.5h192q13 0 22.5 9.5t9.5 23.5v190q0 14 -9.5 23.5t-22.5 9.5h-192q-13 0 -22.5 -9.5t-9.5 -23.5v-190z" />
<glyph unicode="&#xf072;" horiz-adv-x="1408" d="M0 477q-1 13 9 25l96 97q9 9 23 9q6 0 8 -1l194 -53l259 259l-508 279q-14 8 -17 24q-2 16 9 27l128 128q14 13 30 8l665 -159l160 160q76 76 172 108t148 -12q44 -52 12 -148t-108 -172l-161 -161l160 -696q5 -19 -12 -33l-128 -96q-7 -6 -19 -6q-4 0 -7 1q-15 3 -21 16 l-279 508l-259 -259l53 -194q5 -17 -8 -31l-96 -96q-9 -9 -23 -9h-2q-15 2 -24 13l-189 252l-252 189q-11 7 -13 23z" />
<glyph unicode="&#xf073;" horiz-adv-x="1664" d="M0 -128v1280q0 52 38 90t90 38h128v96q0 66 47 113t113 47h64q66 0 113 -47t47 -113v-96h384v96q0 66 47 113t113 47h64q66 0 113 -47t47 -113v-96h128q52 0 90 -38t38 -90v-1280q0 -52 -38 -90t-90 -38h-1408q-52 0 -90 38t-38 90zM128 -128h288v288h-288v-288zM128 224 h288v320h-288v-320zM128 608h288v288h-288v-288zM384 1088q0 -13 9.5 -22.5t22.5 -9.5h64q13 0 22.5 9.5t9.5 22.5v288q0 13 -9.5 22.5t-22.5 9.5h-64q-13 0 -22.5 -9.5t-9.5 -22.5v-288zM480 -128h320v288h-320v-288zM480 224h320v320h-320v-320zM480 608h320v288h-320 v-288zM864 -128h320v288h-320v-288zM864 224h320v320h-320v-320zM864 608h320v288h-320v-288zM1152 1088q0 -13 9.5 -22.5t22.5 -9.5h64q13 0 22.5 9.5t9.5 22.5v288q0 13 -9.5 22.5t-22.5 9.5h-64q-13 0 -22.5 -9.5t-9.5 -22.5v-288zM1248 -128h288v288h-288v-288z M1248 224h288v320h-288v-320zM1248 608h288v288h-288v-288z" />
<glyph unicode="&#xf074;" horiz-adv-x="1792" d="M0 160v192q0 14 9 23t23 9h224q48 0 87 15t69 45t51 61.5t45 77.5q32 62 78 171q29 66 49.5 111t54 105t6403148EDAFD" />
<glyph unicode="&#xf075;" horiz-adv-x="1792" d="M0 640q0 130 71 248.5t191 204.5t286 136.5t348 50.5q244 0 450 -85.5t326 -233t120 -321.5t-120 -321.5t-326 -233t-450 -85.5q-70 0 -145 8q-198 -175 -460 -242q-49 -14 -114 -22q-17 -2 -30.5 9t-17.5 29v1q-3 4 -0.5 12t2 10t4.5 9.5l6 9t7 8.5t8 9q7 8 31 34.5 t34.5 38t31 39.5t32.5 51t27 59t26 76q-157 89 -247.5 220t-90.5 281z" />
<glyph unicode="&#xf076;" d="M0 576v128q0 26 19 45t45 19h384q26 0 45 -19t19 -45v-128q0 -52 23.5 -90t53.5 -57t71 -30t64 -13t44 -2t44 2t64 13t71 30t53.5 57t23.5 90v128q0 26 19 45t45 19h384q26 0 45 -19t19 -45v-128q0 -201 -98.5 -362t-274 -251.5t-395.5 -90.5t-395.5 90.5t-274 251.5 t-98.5 362zM0 960v384q0 26 19 45t45 19h384q26 0 45 -19t19 -45v-384q0 -26 -19 -45t-45 -19h-384q-26 0 -45 19t-19 45zM1024 960v384q0 26 19 45t45 19h384q26 0 45 -19t19 -45v-384q0 -26 -19 -45t-45 -19h-384q-26 0 -45 19t-19 45z" />
<glyph unicode="&#xf077;" horiz-adv-x="1792" d="M90 250.5q0 26.5 19 45.5l742 741q19 19 45 19t45 -19l742 -741q19 -19 19 -45.5t-19 -45.5l-166 -165q-190505252A1C" />
<glyph unicode="&#xf078;" horiz-adv-x="1792" d="M90 773.5q0 26.5 19 45.5l166 165q19 19 45 19t45 -19l531 -531l531 531q19 19 45 19t45 -19l166 -165q19 0529C01ADE" />
<glyph unicode="&#xf079;" horiz-adv-x="1920" d="M0 704q0 24 15 41l320 384q19 22 49 22t49 -22l320 -384q15 -17 15 -41q0 -26 -19 -45t-45 -19h-192v-384h576q16 0 25 -11l160 -192q7 -11 7 -21q0 -13 -9.5 -22.5t-22.5 -9.5h-960q-8 0 -13.5 2t-9 7t-5.5 8t-3 11.5t-1 11.5v13v11v160v416h-192q-26 0 -45 19t-19 45z M640 1120q0 13 9.5 22.5t22.5 9.5h960q8 0 13.5 -2t9 -7t5.5 -8t3 -11.5t1 -11.5v-13v-11v-160v-416h192q26 0 45 -19t19 -45q0 -24 -15 -41l-320 -384q-20 -23 -49 -23t-49 23l-320 384q-15 17 -15 41q0 26 19 45t45 19h192v384h-576q-16 0 -25 12l-160 192q-7 9 -7 20z " />
<glyph unicode="&#xf07a;" horiz-adv-x="1664" d="M0 1216q0 26 19 45t45 19h256q16 0 28.5 -6.5t20 -15.5t13 -24.5t7.5 -26.5t5.5 -29.5t4.5 -25.5h1201q26 0AAD240AA1" />
<glyph unicode="&#xf07b;" horiz-adv-x="1664" d="M0 224v960q0 92 66 158t158 66h320q92 0 158 -66t66 -158v-32h672q92 0 158 -66t66 -158v-704q0 -92 -66 -158t-158 -66h-1216q-92 0 -158 66t-66 158z" />
<glyph unicode="&#xf07c;" horiz-adv-x="1920" d="M0 224v960q0 92 66 158t158 66h320q92 0 158 -66t66 -158v-32h544q92 0 158 -66t66 -158v-160h-832q-94 0 063E1B4AD2" />
<glyph unicode="&#xf07d;" horiz-adv-x="768" d="M64 64q0 26 19 45t45 19h128v1024h-128q-26 0 -45 19t-19 45t19 45l256 256q19 19 45 19t45 -19l256 -256q19 -19 19 -45t-19 -45t-45 -19h-128v-1024h128q26 0 45 -19t19 -45t-19 -45l-256 -256q-19 -19 -45 -19t-45 19l-256 256q-19 19 -19 45z" />
<glyph unicode="&#xf07e;" horiz-adv-x="1792" d="M0 640q0 26 19 45l256 256q19 19 45 19t45 -19t19 -45v-128h1024v128q0 26 19 45t45 19t45 -19l256 -256q19 -19 19 -45t-19 -45l-256 -256q-19 -19 -45 -19t-45 19t-19 45v128h-1024v-128q0 -26 -19 -45t-45 -19t-45 19l-256 256q-19 19 -19 45z" />
<glyph unicode="&#xf080;" horiz-adv-x="1920" d="M0 32v1216q0 66 47 113t113 47h1600q66 0 113 -47t47 -113v-1216q0 -66 -47 -113t-113 -47h-1600q-66 0 -113 47t-47 113zM128 32q0 -13 9.5 -22.5t22.5 -9.5h1600q13 0 22.5 9.5t9.5 22.5v1216q0 13 -9.5 22.5t-22.5 9.5h-1600q-13 0 -22.5 -9.5t-9.5 -22.5v-1216z M256 128v384h256v-384h-256zM640 128v896h256v-896h-256zM1024 128v640h256v-640h-256zM1408 128v1024h256v-1024h-256z" />
<glyph unicode="&#xf081;" d="M0 160v960q0 119 84.5 203.5t203.5 84.5h960q119 0 203.5 -84.5t84.5 -203.5v-960q0 -119 -84.5 -203.5t-203.5 -84.5h-960q-119 0 -203.5 84.5t-84.5 203.5zM256 286q148 -94 322 -94q112 0 210 35.5t168 95t120.5 137t75 162t24.5 168.5q0 18 -1 27q63 45 105 109 q-56 -25 -121 -34q68 40 93 117q-65 -38 -134 -51q-61 66 -153 66q-87 0 -148.5 -61.5t-61.5 -148.5q0 -29 5 -48q-129 7 -242 65t-192 155q-29 -50 -29 -106q0 -114 91 -175q-47 1 -100 26v-2q0 -75 50 -133.5t123 -72.5q-29 -8 -51 -8q-13 0 -39 4q21 -63 74.5 -104 t121.5 -42q-116 -90 -261 -90q-26 0 -50 3z" />
<glyph unicode="&#xf082;" d="M0 160v960q0 119 84.5 203.5t203.5 84.5h960q119 0 203.5 -84.5t84.5 -203.5v-960q0 -119 -84.5 -203.5t-2084EE0CA70" />
<glyph unicode="&#xf083;" horiz-adv-x="1792" d="M0 0v1280q0 53 37.5 90.5t90.5 37.5h1536q53 0 90.5 -37.5t37.5 -90.5v-1280q0 -53 -37.5 -90.5t-90.5 -37.5h-1536q-53 0 -90.5 37.5t-37.5 90.5zM128 0h1536v128h-1536v-128zM128 1024h1536v118v138h-828l-64 -128h-644v-128zM256 1216h384v128h-384v-128zM512 574 q0 -159 112.5 -271.5t271.5 -112.5t271.5 112.5t112.5 271.5t-112.5 271.5t-271.5 112.5t-271.5 -112.5t-112.5 -271.5zM640 574q0 106 75 181t181 75t181 -75t75 -181t-75 -181t-181 -75t-181 75t-75 181zM736 576q0 -14 9 -23t23 -9t23 9t9 23q0 40 28 68t68 28q14 0 23 9 t9 23t-9 23t-23 9q-66 0 -113 -47t-47 -113z" />
<glyph unicode="&#xf084;" horiz-adv-x="1792" d="M0 752q0 160 95 313t248 248t313 95q163 0 265.5 -102.5t102.5 -265.5q0 -189 -131 -365l355 -355l96 96q-3 3 -26 24.5t-40 38.5t-33 36.5t-16 28.5q0 17 49 66t66 49q13 0 23 -10q6 -6 46 -44.5t82 -79.5t86.5 -86t73 -78t28.5 -41q0 -17 -49 -66t-66 -49 q-9 0 -28.5 16t-36.5 33t-38.5 40t-24.5 26l-96 -96l220 -220q28 -28 28 -68q0 -42 -39 -81t-81 -39q-40 0 -68 28l-671 671q-176 -131 -365 -131q-163 0 -265.5 102.5t-102.5 265.5zM192 768q0 -80 56 -136t136 -56t136 56t56 136q0 42 -19 83q41 -19 83 -19q80 0 136 56 t56 136t-56 136t-136 56t-136 -56t-56 -136q0 -42 19 -83q-41 19 -83 19q-80 0 -136 -56t-56 -136z" />
<glyph unicode="&#xf085;" horiz-adv-x="1920" d="M0 549v185q0 10 7 19.5t16 10.5l155 24q11 35 32 76q-34 48 -90 115q-7 11 -7 20q0 12 7 20q22 30 82 89t79 59q11 0 21 -7l115 -90q34 18 77 32q11 108 23 154q7 24 30 24h186q11 0 20 -7.5t10 -17.5l23 -153q34 -10 75 -31l118 89q8 7 20 7q11 0 21 -8 q144 -133 144 -160q0 -9 -7 -19q-12 -16 -42 -54t-45 -60q23 -48 34 -82l152 -23q10 -2 17 -10.5t7 -19.5v-185q0 -10 -7 -19.5t-16 -10.5l-155 -24q-11 -35 -32 -76q34 -48 90 -115q7 -10 7 -20q0 -12 -7 -19q-23 -30 -82.5 -89.5t-78.5 -59.5q-11 0 -21 7l-115 90 q-37 -19 -77 -31q-11 -108 -23 -155q-7 -24 -30 -24h-186q-11 0 -20 7.5t-10 17.5l-23 153q-34 10 -75 31l-118 -89q-7 -7 -20 -7q-11 0 -21 8q-144 133 -144 160q0 9 7 19q10 14 41 53t47 61q-23 44 -35 82l-152 24q-10 1 -17 9.5t-7 19.5zM384 640q0 -106 75 -181t181 -75 t181 75t75 181t-75 181t-181 75t-181 -75t-75 -181zM1152 58v140q0 16 149 31q13 29 30 52q-51 113 -51 138q0 4 4 7q4 2 35 20t59 34t30 16q8 0 46 -46.5t52 -67.5q20 2 30 2t30 -2q51 71 92 112l6 2q4 0 124 -70q4 -3 4 -7q0 -25 -51 -138q17 -23 30 -52q149 -15 149 -31 v-140q0 -16 -149 -31q-12 -27 -30 -52q51 -113 51 -138q0 -4 -4 -7q-122 -71 -124 -71q-8 0 -46 47t-52 68q-20 -2 -30 -2t-30 2q-14 -21 -52 -68t-46 -47q-2 0 -124 71q-4 3 -4 7q0 25 51 138q-18 25 -30 52q-149 15 -149 31zM1152 1082v140q0 16 149 31q13 29 30 52 q-51 113 -51 138q0 4 4 7q4 2 35 20t59 34t30 16q8 0 46 -46.5t52 -67.5q20 2 30 2t30 -2q51 71 92 112l6 2q4 0 124 -70q4 -3 4 -7q0 -25 -51 -138q17 -23 30 -52q149 -15 149 -31v-140q0 -16 -149 -31q-12 -27 -30 -52q51 -113 51 -138q0 -4 -4 -7q-122 -71 -124 -71 q-8 0 -46 47t-52 68q-20 -2 -30 -2t-30 2q-14 -21 -52 -68t-46 -47q-2 0 -124 71q-4 3 -4 7q0 25 51 138q-18 25 -30 52q-149 15 -149 31zM1408 128q0 -53 37.5 -90.5t90.5 -37.5t90.5 37.5t37.5 90.5q0 52 -38 90t-90 38t-90 -38t-38 -90zM1408 1152q0 -53 37.5 -90.5 t90.5 -37.5t90.5 37.5t37.5 90.5q0 52 -38 90t-90 38t-90 -38t-38 -90z" />
<glyph unicode="&#xf086;" horiz-adv-x="1792" d="M0 768q0 139 94 257t256.5 186.5t353.5 68.5t353.5 -68.5t256.5 -186.5t94 -257t-94 -257t-256.5 -186.5t-353.5 -68.5q-86 0 -176 16q-124 -88 -278 -128q-36 -9 -86 -16h-3q-11 0 -20.5 8t-11.5 21q-1 3 -1 6.5t0.5 6.5t2 6l2.5 5t3.5 5.5t4 5t4.5 5t4 4.5q5 6 23 25 t26 29.5t22.5 29t25 38.5t20.5 44q-124 72 -195 177t-71 224zM616 132q58 -4 88 -4q161 0 309 45t264 129q125 92 192 212t67 254q0 77 -23 152q129 -71 204 -178t75 -230q0 -120 -71 -224.5t-195 -176.5q10 -24 20.5 -44t25 -38.5t22.5 -29t26 -29.5t23 -25q1 -1 4 -4.5 t4.5 -5t4 -5t3.5 -5.5l2.5 -5t2 -6t0.5 -6.5t-1 -6.5q-3 -14 -13 -22t-22 -7q-50 7 -86 16q-154 40 -278 128q-90 -16 -176 -16q-271 0 -472 132z" />
<glyph unicode="&#xf087;" d="M0 128v640q0 53 37.5 90.5t90.5 37.5h274q36 24 137 155q58 75 107 128q24 25 35.5 85.5t30.5 126.5t62 108q39 37 90 37q84 0 151 -32.5t102 -101.5t35 -186q0 -93 -48 -192h176q104 0 180 -76t76 -179q0 -89 -49 -163q9 -33 9 -69q0 -77 -38 -144q3 -21 3 -43 q0 -101 -60 -178q1 -139 -85 -219.5t-227 -80.5h-36h-93q-96 0 -189.5 22.5t-216.5 65.5q-116 40 -138 40h-288q-53 0 -90.5 37.5t-37.5 90.5zM128 192q0 -26 19 -45t45 -19t45 19t19 45t-19 45t-45 19t-45 -19t-19 -45zM384 128h32q13 0 31.5 -3t33 -6.5t38 -11t35 -11.5 t35.5 -12.5t29 -10.5q211 -73 342 -73h121q192 0 192 167q0 26 -5 56q30 16 47.5 52.5t17.5 73.5t-18 69q53 50 53 119q0 25 -10 55.5t-25 47.5q32 1 53.5 47t21.5 81q0 51 -39 89.5t-89 38.5h-352q0 58 48 159.5t48 160.5q0 98 -32 145t-128 47q-26 -26 -38 -85 t-30.5 -125.5t-59.5 -109.5q-22 -23 -77 -91q-4 -5 -23 -30t-31.5 -41t-34.5 -42.5t-40 -44t-38.5 -35.5t-40 -27t-35.5 -9h-32v-640z" />
<glyph unicode="&#xf088;" d="M0 512v640q0 53 37.5 90.5t90.5 37.5h288q22 0 138 40q128 44 223 66t200 22h112q140 0 226.5 -79t85.5 -216v-5q60 -77 60 -178q0 -22 -3 -43q38 -67 38 -144q0 -36 -9 -69q49 -74 49 -163q0 -103 -76 -179t-180 -76h-176q48 -99 48 -192q0 -118 -35 -186 q-35 -69 -102 -101.5t-151 -32.5q-51 0 -90 37q-34 33 -54 82t-25.5 90.5t-17.5 84.5t-31 64q-48 50 -107 127q-101 131 -137 155h-274q-53 0 -90.5 37.5t-37.5 90.5zM128 1088q0 -26 19 -45t45 -19t45 19t19 45t-19 45t-45 19t-45 -19t-19 -45zM384 512h32q16 0 35.5 -9 t40 -27t38.5 -35.5t40 -44t34.5 -42.5t31.5 -41t23 -30q55 -68 77 -91q41 -43 59.5 -109.5t30.5 -125.5t38 -85q96 0 128 47t32 145q0 59 -48 160.5t-48 159.5h352q50 0 89 38.5t39 89.5q0 35 -21.5 81t-53.5 47q15 17 25 47.5t10 55.5q0 69 -53 119q18 32 18 69t-17.5 73.5 t-47.5 52.5q5 30 5 56q0 85 -49 126t-136 41h-128q-131 0 -342 -73q-5 -2 -29 -10.5t-35.5 -12.5t-35 -11.5t-38 -11t-33 -6.5t-31.5 -3h-32v-640z" />
<glyph unicode="&#xf089;" horiz-adv-x="896" d="M0 889q0 37 56 46l502 73l225 455q19 41 49 41v-1339l-449 -236q-22 -12 -40 -12q-21 0 -31.5 14.5t-10.5 35.5q0 6 2 20l86 500l-364 354q-25 27 -25 48z" />
<glyph unicode="&#xf08a;" horiz-adv-x="1792" d="M0 940q0 220 127 344t351 124q62 0 126.5 -21.5t120 -58t95.5 -68.5t76 -68q36 36 76 68t95.5 68.5t120 58t126.5 21.5q224 0 351 -124t127 -344q0 -221 -229 -450l-623 -600q-18 -18 -44 -18t-44 18l-624 602q-10 8 -27.5 26t-55.5 65.5t-68 97.5t-53.5 121t-23.5 138z M128 940q0 -168 187 -355l581 -560l580 559q188 188 188 356q0 81 -21.5 143t-55 98.5t-81.5 59.5t-94 31t-98 8t-112 -25.5t-110.5 -64t-86.5 -72t-60 -61.5q-18 -22 -49 -22t-49 22q-24 28 -60 61.5t-86.5 72t-110.5 64t-112 25.5t-98 -8t-94 -31t-81.5 -59.5t-55 -98.5 t-21.5 -143z" />
<glyph unicode="&#xf08b;" horiz-adv-x="1664" d="M0 288v704q0 119 84.5 203.5t203.5 84.5h320q13 0 22.5 -9.5t9.5 -22.5q0 -4 1 -20t0.5 -26.5t-3 -23.5t-10 -19.5t-20.5 -6.5h-320q-66 0 -113 -47t-47 -113v-704q0 -66 47 -113t113 -47h288h11h13t11.5 -1t11.5 -3t8 -5.5t7 -9t2 -13.5q0 -4 1 -20t0.5 -26.5t-3 -23.5 t-10 -19.5t-20.5 -6.5h-320q-119 0 -203.5 84.5t-84.5 203.5zM384 448v384q0 26 19 45t45 19h448v288q0 26 19 45t45 19t45 -19l544 -544q19 -19 19 -45t-19 -45l-544 -544q-19 -19 -45 -19t-45 19t-19 45v288h-448q-26 0 -45 19t-19 45z" />
<glyph unicode="&#xf08c;" d="M0 160v960q0 119 84.5 203.5t203.5 84.5h960q119 0 203.5 -84.5t84.5 -203.5v-960q0 -119 -84.5 -203.5t-203.5 -84.5h-960q-119 0 -203.5 84.5t-84.5 203.5zM223 1030q0 -51 35.5 -85.5t92.5 -34.5h1q59 0 95 34.5t36 85.5q-1 52 -36 86t-93 34t-94.5 -34t-36.5 -86z M237 122h231v694h-231v-694zM595 122h231v388q0 38 7 56q15 35 45 59.5t74 24.5q116 0 116 -157v-371h231v398q0 154 -73 233t-193 79q-136 0 -209 -117h2v101h-231q3 -66 0 -694z" />
<glyph unicode="&#xf08d;" horiz-adv-x="1152" d="M0 320q0 123 78.5 221.5t177.5 98.5v512q-52 0 -90 38t-38 90t38 90t90 38h640q52 0 90 -38t38 -90t-38 -90t-90 -38v-512q99 0 177.5 -98.5t78.5 -221.5q0 -26 -19 -45t-45 -19h-429l-51 -483q-2 -12 -10.5 -20.5t-20.5 -8.5h-1q-27 0 -32 27l-76 485h-404q-26 0 -45 19 t-19 45zM416 672q0 -14 9 -23t23 -9t23 9t9 23v448q0 14 -9 23t-23 9t-23 -9t-9 -23v-448z" />
<glyph unicode="&#xf08e;" horiz-adv-x="1792" d="M0 288v832q0 119 84.5 203.5t203.5 84.5h704q14 0 23 -9t9 -23v-64q0 -14 -9 -23t-23 -9h-704q-66 0 -113 -47t-47 -113v-832q0 -66 47 -113t113 -47h832q66 0 113 47t47 113v320q0 14 9 23t23 9h64q14 0 23 -9t9 -23v-320q0 -119 -84.5 -203.5t-203.5 -84.5h-832 q-119 0 -203.5 84.5t-84.5 203.5zM685 576q0 13 10 23l652 652l-176 176q-19 19 -19 45t19 45t45 19h512q26 0 45 -19t19 -45v-512q0 -26 -19 -45t-45 -19t-45 19l-176 176l-652 -652q-10 -10 -23 -10t-23 10l-114 114q-10 10 -10 23z" />
<glyph unicode="&#xf090;" d="M0 448v384q0 26 19 45t45 19h448v288q0 26 19 45t45 19t45 -19l544 -544q19 -19 19 -45t-19 -45l-544 -54402A684BA67" />
<glyph unicode="&#xf091;" horiz-adv-x="1664" d="M0 928v128q0 40 28 68t68 28h288v96q0 66 47 113t113 47h576q66 0 113 -47t47 -113v-96h288q40 0 68 -28t28 -68v-128q0 -71 -41.5 -143t-112 -130t-173 -97.5t-215.5 -44.5q-42 -54 -95 -95q-38 -34 -52.5 -72.5t-14.5 -89.5q0 -54 30.5 -91t97.5 -37q75 0 133.5 -45.5 t58.5 -114.5v-64q0 -14 -9 -23t-23 -9h-832q-14 0 -23 9t-9 23v64q0 69 58.5 114.5t133.5 45.5q67 0 97.5 37t30.5 91q0 51 -14.5 89.5t-52.5 72.5q-53 41 -95 95q-113 5 -215.5 44.5t-173 97.5t-112 130t-41.5 143zM128 928q0 -78 94.5 -162t235.5 -113q-74 162 -74 371 h-256v-96zM1206 653q141 29 235.5 113t94.5 162v96h-256q0 -209 -74 -371z" />
<glyph unicode="&#xf092;" d="M0 160v960q0 119 84.5 203.5t203.5 84.5h960q119 0 203.5 -84.5t84.5 -203.5v-960q0 -119 -84.5 -203.5t-203.5 -84.5h-224q-16 0 -24.5 1t-19.5 5t-16 14.5t-5 27.5v239q0 97 -52 142q57 6 102.5 18t94 39t81 66.5t53 105t20.5 150.5q0 121 -79 206q37 91 -8 204 q-28 9 -81 -11t-92 -44l-38 -24q-93 26 -192 26t-192 -26q-16 11 -42.5 27t-83.5 38.5t-86 13.5q-44 -113 -7 -204q-79 -85 -79 -206q0 -85 20.5 -150t52.5 -105t80.5 -67t94 -39t102.5 -18q-40 -36 -49 -103q-21 -10 -45 -15t-57 -5t-65.5 21.5t-55.5 62.5q-19 32 -48.5 52 t-49.5 24l-20 3q-21 0 -29 -4.5t-5 -11.5t9 -14t13 -12l7 -5q22 -10 43.5 -38t31.5 -51l10 -23q13 -38 44 -61.5t67 -30t69.5 -7t55.5 3.5l23 4q0 -38 0.5 -103t0.5 -68q0 -22 -11 -33.5t-22 -13t-33 -1.5h-224q-119 0 -203.5 84.5t-84.5 203.5zM271 315q3 5 13 2 q10 -5 7 -12q-5 -7 -13 -2q-10 5 -7 12zM304 290q6 6 16 -3q9 -11 2 -16q-6 -7 -16 3q-9 11 -2 16zM335 233q-9 13 0 18q9 7 17 -6q9 -12 0 -19q-8 -6 -17 7zM370 206q8 9 20 -3q12 -11 4 -19q-8 -9 -20 3q-13 11 -4 19zM419 168q4 11 19 7q16 -5 13 -16q-4 -12 -19 -6 q-17 4 -13 15zM481 154q0 11 16 11q17 2 17 -11q0 -11 -16 -11q-17 -2 -17 11zM540 158q-2 12 14 15q16 2 18 -9q2 -10 -14 -14t-18 8z" />
<glyph unicode="&#xf093;" horiz-adv-x="1664" d="M0 -32v320q0 40 28 68t68 28h427q21 -56 70.5 -92t110.5 -36h256q61 0 110.5 36t70.5 92h427q40 0 68 -28t28 -68v-320q0 -40 -28 -68t-68 -28h-1472q-40 0 -68 28t-28 68zM325 936q-17 39 14 69l448 448q18 19 45 19t45 -19l448 -448q31 -30 14 -69q-17 -40 -59 -40 h-256v-448q0 -26 -19 -45t-45 -19h-256q-26 0 -45 19t-19 45v448h-256q-42 0 -59 40zM1152 64q0 -26 19 -45t45 -19t45 19t19 45t-19 45t-45 19t-45 -19t-19 -45zM1408 64q0 -26 19 -45t45 -19t45 19t19 45t-19 45t-45 19t-45 -19t-19 -45z" />
<glyph unicode="&#xf094;" d="M0 433q0 111 18 217.5t54.5 209.5t100.5 194t150 156q78 59 232 120q194 78 316 78q60 0 175.5 -24t173.5 06E1695A42" />
<glyph unicode="&#xf095;" horiz-adv-x="1408" d="M0 1069q0 92 51 186q56 101 106 122q25 11 68.5 21t70.5 10q14 0 21 -3q18 -6 53 -76q11 -19 30 -54t35 -60C4700FA9F" />
<glyph unicode="&#xf096;" horiz-adv-x="1408" d="M0 288v832q0 119 84.5 203.5t203.5 84.5h832q119 0 203.5 -84.5t84.5 -203.5v-832q0 -119 -84.5 -203.5t-203.5 -84.5h-832q-119 0 -203.5 84.5t-84.5 203.5zM128 288q0 -66 47 -113t113 -47h832q66 0 113 47t47 113v832q0 66 -47 113t-113 47h-832q-66 0 -113 -47 t-47 -113v-832z" />
<glyph unicode="&#xf097;" horiz-adv-x="1280" d="M0 7v1289q0 34 19.5 62t52.5 41q21 9 44 9h1048q23 0 44 -9q33 -13 52.5 -41t19.5 -62v-1289q0 -34 -19.5 -62t-52.5 -41q-19 -8 -44 -8q-48 0 -83 32l-441 424l-441 -424q-36 -33 -83 -33q-23 0 -44 9q-33 13 -52.5 41t-19.5 62zM128 38l423 406l89 85l89 -85l423 -406 v1242h-1024v-1242z" />
<glyph unicode="&#xf098;" d="M0 160v960q0 119 84.5 203.5t203.5 84.5h960q119 0 203.5 -84.5t84.5 -203.5v-960q0 -119 -84.5 -203.5t-20003375A2B" />
<glyph unicode="&#xf099;" horiz-adv-x="1664" d="M44 145q35 -4 78 -4q225 0 401 138q-105 2 -188 64.5t-114 159.5q33 -5 61 -5q43 0 85 11q-112 23 -185.5 111.5t-73.5 205.5v4q68 -38 146 -41q-66 44 -105 115t-39 154q0 88 44 163q121 -149 294.5 -238.5t371.5 -99.5q-8 38 -8 74q0 134 94.5 228.5t228.5 94.5 q140 0 236 -102q109 21 205 78q-37 -115 -142 -178q93 10 186 50q-67 -98 -162 -167q1 -14 1 -42q0 -130 -38 -259.5t-115.5 -248.5t-184.5 -210.5t-258 -146t-323 -54.5q-271 0 -496 145z" />
<glyph unicode="&#xf09a;" horiz-adv-x="1024" d="M95 631v296h255v218q0 186 104 288.5t277 102.5q147 0 228 -12v-264h-157q-86 0 -116 -36t-30 -108v-189h293l-39 -296h-254v-759h-306v759h-255z" />
<glyph unicode="&#xf09b;" d="M0 640q0 209 103 385.5t279.5 279.5t385.5 103t385.5 -103t279.5 -279.5t103 -385.5q0 -251 -146.5 -451.5096B445AE0" />
<glyph unicode="&#xf09c;" horiz-adv-x="1664" d="M0 96v576q0 40 28 68t68 28h672v192q0 185 131.5 316.5t316.5 131.5t316.5 -131.5t131.5 -316.5v-256q0 -26 -19 -45t-45 -19h-64q-26 0 -45 19t-19 45v256q0 106 -75 181t-181 75t-181 -75t-75 -181v-192h96q40 0 68 -28t28 -68v-576q0 -40 -28 -68t-68 -28h-960 q-40 0 -68 28t-28 68z" />
<glyph unicode="&#xf09d;" horiz-adv-x="1920" d="M0 32v1216q0 66 47 113t113 47h1600q66 0 113 -47t47 -113v-1216q0 -66 -47 -113t-113 -47h-1600q-66 0 -113 47t-47 113zM128 32q0 -13 9.5 -22.5t22.5 -9.5h1600q13 0 22.5 9.5t9.5 22.5v608h-1664v-608zM128 1024h1664v224q0 13 -9.5 22.5t-22.5 9.5h-1600 q-13 0 -22.5 -9.5t-9.5 -22.5v-224zM256 128v128h256v-128h-256zM640 128v128h384v-128h-384z" />
<glyph unicode="&#xf09e;" horiz-adv-x="1408" d="M0 192q0 80 56 136t136 56t136 -56t56 -136t-56 -136t-136 -56t-136 56t-56 136zM0 697v135q0 29 21 47q170804322A89" />
<glyph unicode="&#xf0a0;" d="M0 160v320q0 25 16 75l197 606q17 53 63 86t101 33h782q55 0 101 -33t63 -86l197 -606q16 -50 16 -75v-32006D8C8DA63" />
<glyph unicode="&#xf0a1;" horiz-adv-x="1792" d="M0 672v192q0 66 47 113t113 47h480q435 0 896 384q52 0 90 -38t38 -90v-384q53 0 90.5 -37.5t37.5 -90.5t-37.5 -90.5t-90.5 -37.5v-384q0 -52 -38 -90t-90 -38q-417 347 -812 380q-58 -19 -91 -66t-31 -100.5t40 -92.5q-20 -33 -23 -65.5t6 -58t33.5 -55t48 -50 t61.5 -50.5q-29 -58 -111.5 -83t-168.5 -11.5t-132 55.5q-7 23 -29.5 87.5t-32 94.5t-23 89t-15 101t3.5 98.5t22 110.5h-122q-66 0 -113 47t-47 113zM768 633q377 -42 768 -341v954q-394 -302 -768 -343v-270z" />
<glyph unicode="&#xf0a2;" horiz-adv-x="1664" d="M0 128q190 161 287 397.5t97 498.5q0 165 96 262t264 117q-8 18 -8 37q0 40 28 68t68 28t68 -28t28 -68q0 -19 -8 -37q168 -20 264 -117t96 -262q0 -262 97 -498.5t287 -397.5q0 -52 -38 -90t-90 -38h-448q0 -106 -75 -181t-181 -75t-181 75t-75 181h-448q-52 0 -90 38 t-38 90zM183 128h1298q-164 181 -246.5 411.5t-82.5 484.5q0 256 -320 256t-320 -256q0 -254 -82.5 -484.5t-246.5 -411.5zM656 0q0 -73 51.5 -124.5t124.5 -51.5q16 0 16 16t-16 16q-59 0 -101.5 42.5t-42.5 101.5q0 16 -16 16t-16 -16z" />
<glyph unicode="&#xf0a3;" d="M2 435q-10 42 20 70l138 135l-138 135q-30 28 -20 70q12 41 52 51l188 48l-53 186q-12 41 19 70q29 31 70 19l186 -53l48 188q10 41 51 51q41 12 70 -19l135 -139l135 139q29 30 70 19q41 -10 51 -51l48 -188l186 53q41 12 70 -19q31 -29 19 -70l-53 -186l188 -48 q40 -10 52 -51q10 -42 -20 -70l-138 -135l138 -135q30 -28 20 -70q-12 -41 -52 -51l-188 -48l53 -186q12 -41 -19 -70q-29 -31 -70 -19l-186 53l-48 -188q-10 -40 -51 -52q-12 -2 -19 -2q-31 0 -51 22l-135 138l-135 -138q-28 -30 -70 -20q-41 11 -51 52l-48 188l-186 -53 q-41 -12 -70 19q-31 29 -19 70l53 186l-188 48q-40 10 -52 51z" />
<glyph unicode="&#xf0a4;" horiz-adv-x="1792" d="M0 128v640q0 53 37.5 90.5t90.5 37.5h288q10 0 21.5 4.5t23.5 14t22.5 18t24 22.5t20.5 21.5t19 21.5t14 17q65 74 100 129q13 21 33 62t37 72t40.5 63t55 49.5t69.5 17.5q125 0 206.5 -67t81.5 -189q0 -68 -22 -128h374q104 0 180 -76t76 -179q0 -105 -75.5 -181 t-180.5 -76h-169q-4 -62 -37 -119q3 -21 3 -43q0 -101 -60 -178q1 -139 -85 -219.5t-227 -80.5q-133 0 -322 69q-164 59 -223 59h-288q-53 0 -90.5 37.5t-37.5 90.5zM128 192q0 -26 19 -45t45 -19t45 19t19 45t-19 45t-45 19t-45 -19t-19 -45zM384 128h32q72 0 167 -32 t193.5 -64t179.5 -32q189 0 189 167q0 26 -5 56q30 16 47.5 52.5t17.5 73.5t-18 69q53 50 53 119q0 25 -10 55.5t-25 47.5h331q52 0 90 38t38 90q0 51 -39 89.5t-89 38.5h-576q0 20 15 48.5t33 55t33 68t15 84.5q0 67 -44.5 97.5t-115.5 30.5q-24 0 -90 -139 q-24 -44 -37 -65q-40 -64 -112 -145q-71 -81 -101 -106q-69 -57 -140 -57h-32v-640z" />
<glyph unicode="&#xf0a5;" horiz-adv-x="1792" d="M0 769q0 103 76 179t180 76h374q-22 60 -22 128q0 122 81.5 189t206.5 67q38 0 69.5 -17.5t55 -49.5t40.5 -63t37 -72t33 -62q35 -55 100 -129q2 -3 14 -17t19 -21.5t20.5 -21.5t24 -22.5t22.5 -18t23.5 -14t21.5 -4.5h288q53 0 90.5 -37.5t37.5 -90.5v-640 q0 -53 -37.5 -90.5t-90.5 -37.5h-288q-59 0 -223 -59q-190 -69 -317 -69q-142 0 -230 77.5t-87 217.5l1 5q-61 76 -61 178q0 22 3 43q-33 57 -37 119h-169q-105 0 -180.5 76t-75.5 181zM128 768q0 -52 38 -90t90 -38h331q-15 -17 -25 -47.5t-10 -55.5q0 -69 53 -119 q-18 -32 -18 -69t17.5 -73.5t47.5 -52.5q-4 -24 -4 -56q0 -85 48.5 -126t135.5 -41q84 0 183 32t194 64t167 32h32v640h-32q-35 0 -67.5 12t-62.5 37t-50 46t-49 54q-2 3 -3.5 4.5t-4 4.5t-4.5 5q-72 81 -112 145q-14 22 -38 68q-1 3 -10.5 22.5t-18.5 36t-20 35.5 t-21.5 30.5t-18.5 11.5q-71 0 -115.5 -30.5t-44.5 -97.5q0 -43 15 -84.5t33 -68t33 -55t15 -48.5h-576q-50 0 -89 -38.5t-39 -89.5zM1536 192q0 -26 19 -45t45 -19t45 19t19 45t-19 45t-45 19t-45 -19t-19 -45z" />
<glyph unicode="&#xf0a6;" d="M0 640q0 125 67 206.5t189 81.5q68 0 128 -22v374q0 104 76 180t179 76q105 0 181 -75.5t76 -180.5v-169q62 -4 119 -37q21 3 43 3q101 0 178 -60q139 1 219.5 -85t80.5 -227q0 -133 -69 -322q-59 -164 -59 -223v-288q0 -53 -37.5 -90.5t-90.5 -37.5h-640 q-53 0 -90.5 37.5t-37.5 90.5v288q0 10 -4.5 21.5t-14 23.5t-18 22.5t-22.5 24t-21.5 20.5t-21.5 19t-17 14q-74 65 -129 100q-21 13 -62 33t-72 37t-63 40.5t-49.5 55t-17.5 69.5zM128 640q0 -24 139 -90q44 -24 65 -37q64 -40 145 -112q81 -71 106 -101q57 -69 57 -140 v-32h640v32q0 72 32 167t64 193.5t32 179.5q0 189 -167 189q-26 0 -56 -5q-16 30 -52.5 47.5t-73.5 17.5t-69 -18q-50 53 -119 53q-25 0 -55.5 -10t-47.5 -25v331q0 52 -38 90t-90 38q-51 0 -89.5 -39t-38.5 -89v-576q-20 0 -48.5 15t-55 33t-68 33t-84.5 15 q-67 0 -97.5 -44.5t-30.5 -115.5zM1152 -64q0 -26 19 -45t45 -19t45 19t19 45t-19 45t-45 19t-45 -19t-19 -45z" />
<glyph unicode="&#xf0a7;" d="M0 640q0 38 17.5 69.5t49.5 55t63 40.5t72 37t62 33q55 35 129 100q3 2 17 14t21.5 19t21.5 20.5t22.5 24t18 22.5t14 23.5t4.5 21.5v288q0 53 37.5 90.5t90.5 37.5h640q53 0 90.5 -37.5t37.5 -90.5v-288q0 -59 59 -223q69 -190 69 -317q0 -142 -77.5 -230t-217.5 -87 l-5 1q-76 -61 -178 -61q-22 0 -43 3q-54 -30 -119 -37v-169q0 -105 -76 -180.5t-181 -75.5q-103 0 -179 76t-76 180v374q-54 -22 -128 -22q-121 0 -188.5 81.5t-67.5 206.5zM128 640q0 -71 30.5 -115.5t97.5 -44.5q43 0 84.5 15t68 33t55 33t48.5 15v-576q0 -50 38.5 -89 t89.5 -39q52 0 90 38t38 90v331q46 -35 103 -35q69 0 119 53q32 -18 69 -18t73.5 17.5t52.5 47.5q24 -4 56 -4q85 0 126 48.5t41 135.5q0 84 -32 183t-64 194t-32 167v32h-640v-32q0 -35 -12 -67.5t-37 -62.5t-46 -50t-54 -49q-9 -8 -14 -12q-81 -72 -145 -112 q-22 -14 -68 -38q-3 -1 -22.5 -10.5t-36 -18.5t-35.5 -20t-30.5 -21.5t-11.5 -18.5zM1152 1344q0 -26 19 -45t45 -19t45 19t19 45t-19 45t-45 19t-45 -19t-19 -45z" />
<glyph unicode="&#xf0a8;" d="M0 640q0 209 103 385.5t279.5 279.5t385.5 103t385.5 -103t279.5 -279.5t103 -385.5t-103 -385.5t-279.5 -279.5t-385.5 -103t-385.5 103t-279.5 279.5t-103 385.5zM251 640q0 -27 18 -45l91 -91l362 -362q18 -18 45 -18t45 18l91 91q18 18 18 45t-18 45l-189 189h502 q26 0 45 19t19 45v128q0 26 -19 45t-45 19h-502l189 189q19 19 19 45t-19 45l-91 91q-18 18 -45 18t-45 -18l-362 -362l-91 -91q-18 -18 -18 -45z" />
<glyph unicode="&#xf0a9;" d="M0 640q0 209 103 385.5t279.5 279.5t385.5 103t385.5 -103t279.5 -279.5t103 -385.5t-103 -385.5t-279.5 -279.5t-385.5 -103t-385.5 103t-279.5 279.5t-103 385.5zM256 576q0 -26 19 -45t45 -19h502l-189 -189q-19 -19 -19 -45t19 -45l91 -91q18 -18 45 -18t45 18 l362 362l91 91q18 18 18 45t-18 45l-91 91l-362 362q-18 18 -45 18t-45 -18l-91 -91q-18 -18 -18 -45t18 -45l189 -189h-502q-26 0 -45 -19t-19 -45v-128z" />
<glyph unicode="&#xf0aa;" d="M0 640q0 209 103 385.5t279.5 279.5t385.5 103t385.5 -103t279.5 -279.5t103 -385.5t-103 -385.5t-279.5 -279.5t-385.5 -103t-385.5 103t-279.5 279.5t-103 385.5zM252 641q0 -27 18 -45l91 -91q18 -18 45 -18t45 18l189 189v-502q0 -26 19 -45t45 -19h128q26 0 45 19 t19 45v502l189 -189q19 -19 45 -19t45 19l91 91q18 18 18 45t-18 45l-362 362l-91 91q-18 18 -45 18t-45 -18l-91 -91l-362 -362q-18 -18 -18 -45z" />
<glyph unicode="&#xf0ab;" d="M0 640q0 209 103 385.5t279.5 279.5t385.5 103t385.5 -103t279.5 -279.5t103 -385.5t-103 -385.5t-279.5 -279.5t-385.5 -103t-385.5 103t-279.5 279.5t-103 385.5zM252 639q0 -27 18 -45l362 -362l91 -91q18 -18 45 -18t45 18l91 91l362 362q18 18 18 45t-18 45l-91 91 q-18 18 -45 18t-45 -18l-189 -189v502q0 26 -19 45t-45 19h-128q-26 0 -45 -19t-19 -45v-502l-189 189q-19 19 -45 19t-45 -19l-91 -91q-18 -18 -18 -45z" />
<glyph unicode="&#xf0ac;" d="M0 640q0 209 103 385.5t279.5 279.5t385.5 103t385.5 -103t279.5 -279.5t103 -385.5t-103 -385.5t-279.5 -0749587ABC" />
<glyph unicode="&#xf0ad;" horiz-adv-x="1664" d="M21 0q0 53 38 91l681 681q39 -98 114.5 -173.5t173.5 -114.5l-682 -682q-37 -37 -90 -37q-52 0 -91 37l-100F19B9FA19" />
<glyph unicode="&#xf0ae;" horiz-adv-x="1792" d="M0 64v256q0 26 19 45t45 19h1664q26 0 45 -19t19 -45v-256q0 -26 -19 -45t-45 -19h-1664q-26 0 -45 19t-19 45zM0 576v256q0 26 19 45t45 19h1664q26 0 45 -19t19 -45v-256q0 -26 -19 -45t-45 -19h-1664q-26 0 -45 19t-19 45zM0 1088v256q0 26 19 45t45 19h1664 q26 0 45 -19t19 -45v-256q0 -26 -19 -45t-45 -19h-1664q-26 0 -45 19t-19 45zM640 640h1024v128h-1024v-128zM1024 128h640v128h-640v-128zM1280 1152h384v128h-384v-128z" />
<glyph unicode="&#xf0b0;" horiz-adv-x="1408" d="M5 1241q17 39 59 39h1280q42 0 59 -39q17 -41 -14 -70l-493 -493v-742q0 -42 -39 -59q-13 -5 -25 -5q-27 0 -45 19l-256 256q-19 19 -19 45v486l-493 493q-31 29 -14 70z" />
<glyph unicode="&#xf0b1;" horiz-adv-x="1792" d="M0 160v480h672v-160q0 -26 19 -45t45 -19h320q26 0 45 19t19 45v160h672v-480q0 -66 -47 -113t-113 -47h-1472q-66 0 -113 47t-47 113zM0 736v384q0 66 47 113t113 47h352v160q0 40 28 68t68 28h576q40 0 68 -28t28 -68v-160h352q66 0 113 -47t47 -113v-384h-1792z M640 1280h512v128h-512v-128zM768 512v128h256v-128h-256z" />
<glyph unicode="&#xf0b2;" d="M0 -64v448q0 42 40 59q39 17 69 -14l144 -144l355 355l-355 355l-144 -144q-19 -19 -45 -19q-12 0 -24 5q-40 17 -40 59v448q0 26 19 45t45 19h448q42 0 59 -40q17 -39 -14 -69l-144 -144l355 -355l355 355l-144 144q-31 30 -14 69q17 40 59 40h448q26 0 45 -19t19 -45 v-448q0 -42 -39 -59q-13 -5 -25 -5q-26 0 -45 19l-144 144l-355 -355l355 -355l144 144q29 31 70 14q39 -17 39 -59v-448q0 -26 -19 -45t-45 -19h-448q-42 0 -59 40q-17 39 14 69l144 144l-355 355l-355 -355l144 -144q31 -30 14 -69q-17 -40 -59 -40h-448q-26 0 -45 19 t-19 45z" />
<glyph unicode="&#xf0c0;" horiz-adv-x="1920" d="M0 671q0 353 124 353q6 0 43.5 -21t97.5 -42.5t119 -21.5q67 0 133 23q-5 -37 -5 -66q0 -139 81 -256q-162 -5 -265 -128h-134q-82 0 -138 40.5t-56 118.5zM128 1280q0 106 75 181t181 75t181 -75t75 -181t-75 -181t-181 -75t-181 75t-75 181zM256 3q0 53 3.5 103.5 t14 109t26.5 108.5t43 97.5t62 81t85.5 53.5t111.5 20q10 0 43 -21.5t73 -48t107 -48t135 -21.5t135 21.5t107 48t73 48t43 21.5q61 0 111.5 -20t85.5 -53.5t62 -81t43 -97.5t26.5 -108.5t14 -109t3.5 -103.5q0 -120 -73 -189.5t-194 -69.5h-874q-121 0 -194 69.5t-73 189.5 zM576 896q0 159 112.5 271.5t271.5 112.5t271.5 -112.5t112.5 -271.5t-112.5 -271.5t-271.5 -112.5t-271.5 112.5t-112.5 271.5zM1280 1280q0 106 75 181t181 75t181 -75t75 -181t-75 -181t-181 -75t-181 75t-75 181zM1327 640q81 117 81 256q0 29 -5 66q66 -23 133 -23 q59 0 119 21.5t97.5 42.5t43.5 21q124 0 124 -353q0 -78 -56 -118.5t-138 -40.5h-134q-103 123 -265 128z" />
<glyph unicode="&#xf0c1;" horiz-adv-x="1664" d="M16 1088q0 120 85 203l147 146q83 83 203 83q121 0 204 -85l206 -207q83 -83 83 -203q0 -123 -88 -209l88 -88q86 88 208 88q120 0 204 -84l208 -208q84 -84 84 -204t-85 -203l-147 -146q-83 -83 -203 -83q-121 0 -204 85l-206 207q-83 83 -83 203q0 123 88 209l-88 88 q-86 -88 -208 -88q-120 0 -204 84l-208 208q-84 84 -84 204zM208 1088q0 -40 28 -68l208 -208q27 -27 68 -27q42 0 72 31q-3 3 -19 18.5t-21.5 21.5t-15 19t-13 25.5t-3.5 27.5q0 40 28 68t68 28q15 0 27.5 -3.5t25.5 -13t19 -15t21.5 -21.5t18.5 -19q33 31 33 73 q0 40 -28 68l-206 207q-28 28 -68 28q-39 0 -68 -27l-147 -146q-28 -28 -28 -67zM911 383q0 -40 28 -68l206 -207q27 -27 68 -27q40 0 68 26l147 146q28 28 28 67q0 40 -28 68l-208 208q-28 28 -68 28q-42 0 -72 -32q3 -3 19 -18.5t21.5 -21.5t15 -19t13 -25.5t3.5 -27.5 q0 -40 -28 -68t-68 -28q-15 0 -27.5 3.5t-25.5 13t-19 15t-21.5 21.5t-18.5 19q-33 -31 -33 -73z" />
<glyph unicode="&#xf0c2;" horiz-adv-x="1920" d="M0 448q0 132 71 241.5t187 163.5q-2 28 -2 43q0 212 150 362t362 150q158 0 286.5 -88t187.5 -230q70 62 10C6D82EAE5" />
<glyph unicode="&#xf0c3;" horiz-adv-x="1664" d="M115.5 -64.5q-34.5 63.5 21.5 152.5l503 793v399h-64q-26 0 -45 19t-19 45t19 45t45 19h512q26 0 45 -19t19 -45t-19 -45t-45 -19h-64v-399l503 -793q56 -89 21.5 -152.5t-140.5 -63.5h-1152q-106 0 -140.5 63.5zM476 384h712l-272 429l-20 31v37v399h-128v-399v-37 l-20 -31z" />
<glyph unicode="&#xf0c4;" horiz-adv-x="1792" d="M1 157q7 76 56 147t131 124q132 84 278 84q83 0 151 -31q9 13 22 22l122 73l-122 73q-13 9 -22 22q-68 -31 -151 -31q-146 0 -278 84q-82 53 -131 124t-56 147q-5 59 15.5 113t63.5 93q85 79 222 79q145 0 277 -84q83 -52 132 -123t56 -148q4 -48 -10 -97q4 -1 12 -5 l110 -66l690 387q14 8 31 8q16 0 29 -7l128 -64q30 -16 35 -51q3 -36 -25 -56l-507 -398l507 -398q28 -20 25 -56q-5 -35 -35 -51l-128 -64q-13 -7 -29 -7q-17 0 -31 8l-690 387l-110 -66q-8 -4 -12 -5q14 -49 10 -97q-7 -77 -56 -147.5t-132 -123.5q-132 -84 -277 -84 q-136 0 -222 78q-90 84 -79 207zM168 176q-25 -66 21 -108q39 -36 113 -36q100 0 192 59q81 51 106 117t-21 108q-39 36 -113 36q-100 0 -192 -59q-81 -51 -106 -117zM168 976q25 -66 106 -117q92 -59 192 -59q74 0 113 36q46 42 21 108t-106 117q-92 59 -192 59 q-74 0 -113 -36q-46 -42 -21 -108zM672 448l9 -8q2 -2 7 -6q4 -4 11 -12t11 -12l26 -26l160 96l96 -32l736 576l-128 64l-768 -431v-113zM672 704l96 -58v11q0 36 33 56l14 8l-79 47l-26 -26q-3 -3 -10 -11t-12 -12q-2 -2 -4 -3.5t-3 -2.5zM896 576q0 26 19 45t45 19t45 -19 t19 -45t-19 -45t-45 -19t-45 19t-19 45zM1018 391l582 -327l128 64l-520 408l-177 -138q-2 -3 -13 -7z" />
<glyph unicode="&#xf0c5;" horiz-adv-x="1792" d="M0 224v672q0 40 20 88t48 76l408 408q28 28 76 48t88 20h416q40 0 68 -28t28 -68v-328q68 40 128 40h416q40 0 68 -28t28 -68v-1216q0 -40 -28 -68t-68 -28h-960q-40 0 -68 28t-28 68v288h-544q-40 0 -68 28t-28 68zM128 256h512v256q0 40 20 88t48 76l316 316v416h-384 v-416q0 -40 -28 -68t-68 -28h-416v-640zM213 1024h299v299zM768 -128h896v1152h-384v-416q0 -40 -28 -68t-68 -28h-416v-640zM853 640h299v299z" />
<glyph unicode="&#xf0c6;" horiz-adv-x="1408" d="M4 1023q0 159 110 270t269 111q158 0 273 -113l605 -606q10 -10 10 -22q0 -16 -30.5 -46.5t-46.5 -30.5q-13 0 -23 10l-606 607q-79 77 -181 77q-106 0 -179 -75t-73 -181q0 -105 76 -181l776 -777q63 -63 145 -63q64 0 106 42t42 106q0 82 -63 145l-581 581 q-26 24 -60 24q-29 0 -48 -19t-19 -48q0 -32 25 -59l410 -410q10 -10 10 -22q0 -16 -31 -47t-47 -31q-12 0 -22 10l-410 410q-63 61 -63 149q0 82 57 139t139 57q88 0 149 -63l581 -581q100 -98 100 -235q0 -117 -79 -196t-196 -79q-135 0 -235 100l-777 776 q-113 115 -113 271z" />
<glyph unicode="&#xf0c7;" d="M0 -32v1344q0 40 28 68t68 28h928q40 0 88 -20t76 -48l280 -280q28 -28 48 -76t20 -88v-928q0 -40 -28 -68t-68 -28h-1344q-40 0 -68 28t-28 68zM128 0h128v416q0 40 28 68t68 28h832q40 0 68 -28t28 -68v-416h128v896q0 14 -10 38.5t-20 34.5l-281 281q-10 10 -34 20 t-39 10v-416q0 -40 -28 -68t-68 -28h-576q-40 0 -68 28t-28 68v416h-128v-1280zM384 0h768v384h-768v-384zM640 928q0 -13 9.5 -22.5t22.5 -9.5h192q13 0 22.5 9.5t9.5 22.5v320q0 13 -9.5 22.5t-22.5 9.5h-192q-13 0 -22.5 -9.5t-9.5 -22.5v-320z" />
<glyph unicode="&#xf0c8;" d="M0 160v960q0 119 84.5 203.5t203.5 84.5h960q119 0 203.5 -84.5t84.5 -203.5v-960q0 -119 -84.5 -203.5t-203.5 -84.5h-960q-119 0 -203.5 84.5t-84.5 203.5z" />
<glyph unicode="&#xf0c9;" d="M0 64v128q0 26 19 45t45 19h1408q26 0 45 -19t19 -45v-128q0 -26 -19 -45t-45 -19h-1408q-26 0 -45 19t-19 45zM0 576v128q0 26 19 45t45 19h1408q26 0 45 -19t19 -45v-128q0 -26 -19 -45t-45 -19h-1408q-26 0 -45 19t-19 45zM0 1088v128q0 26 19 45t45 19h1408 q26 0 45 -19t19 -45v-128q0 -26 -19 -45t-45 -19h-1408q-26 0 -45 19t-19 45z" />
<glyph unicode="&#xf0ca;" horiz-adv-x="1792" d="M0 128q0 80 56 136t136 56t136 -56t56 -136t-56 -136t-136 -56t-136 56t-56 136zM0 640q0 80 56 136t136 509CE6F8A7E" />
<glyph unicode="&#xf0cb;" horiz-adv-x="1792" d="M15 438q0 51 23.5 93t56.5 68t66 47.5t56.5 43.5t23.5 45q0 25 -14.5 38.5t-39.5 13.5q-46 0 -81 -58l-85 0DD36C0AE1" />
<glyph unicode="&#xf0cc;" horiz-adv-x="1792" d="M0 544v64q0 14 9 23t23 9h1728q14 0 23 -9t9 -23v-64q0 -14 -9 -23t-23 -9h-1728q-14 0 -23 9t-9 23zM384 972q0 181 134 309q133 127 393 127q50 0 167 -19q66 -12 177 -48q10 -38 21 -118q14 -123 14 -183q0 -18 -5 -45l-12 -3l-84 6l-14 2q-50 149 -103 205 q-88 91 -210 91q-114 0 -182 -59q-67 -58 -67 -146q0 -73 66 -140t279 -129q69 -20 173 -66q58 -28 95 -52h-743q-28 35 -51 80q-48 97 -48 188zM414 154q-1 30 0 68l2 37v44l102 2q15 -34 30 -71t22.5 -56t12.5 -27q35 -57 80 -94q43 -36 105 -57q59 -22 132 -22 q64 0 139 27q77 26 122 86q47 61 47 129q0 84 -81 157q-34 29 -137 71h411q7 -39 7 -92q0 -111 -41 -212q-23 -55 -71 -104q-37 -35 -109 -81q-80 -48 -153 -66q-80 -21 -203 -21q-114 0 -195 23l-140 40q-57 16 -72 28q-8 8 -8 22v13q0 108 -2 156z" />
<glyph unicode="&#xf0cd;" d="M0 -32v-64q0 -14 9 -23t23 -9h1472q14 0 23 9t9 23v64q0 14 -9 23t-23 9h-1472q-14 0 -23 -9t-9 -23zM0 1405q13 1 40 1q60 0 112 -4q132 -7 166 -7q86 0 168 3q116 4 146 5q56 0 86 2l-1 -14l2 -64v-9q-60 -9 -124 -9q-60 0 -79 -25q-13 -14 -13 -132q0 -13 0.5 -32.5 t0.5 -25.5l1 -229l14 -280q6 -124 51 -202q35 -59 96 -92q88 -47 177 -47q104 0 191 28q56 18 99 51q48 36 65 64q36 56 53 114q21 73 21 229q0 79 -3.5 128t-11 122.5t-13.5 159.5l-4 59q-5 67 -24 88q-34 35 -77 34l-100 -2l-14 3l2 86h84l205 -10q76 -3 196 10l18 -2 q6 -38 6 -51q0 -7 -4 -31q-45 -12 -84 -13q-73 -11 -79 -17q-15 -15 -15 -41q0 -7 1.5 -27t1.5 -31q8 -19 22 -396q6 -195 -15 -304q-15 -76 -41 -122q-38 -65 -112 -123q-75 -57 -182 -89q-109 -33 -255 -33q-167 0 -284 46q-119 47 -179 122q-61 76 -83 195 q-16 80 -16 237v333q0 188 -17 213q-25 36 -147 39q-37 2 -45 4z" />
<glyph unicode="&#xf0ce;" horiz-adv-x="1664" d="M0 160v1088q0 66 47 113t113 47h1344q66 0 113 -47t47 -113v-1088q0 -66 -47 -113t-113 -47h-1344q-66 0 -113 47t-47 113zM128 160q0 -14 9 -23t23 -9h320q14 0 23 9t9 23v192q0 14 -9 23t-23 9h-320q-14 0 -23 -9t-9 -23v-192zM128 544q0 -14 9 -23t23 -9h320 q14 0 23 9t9 23v192q0 14 -9 23t-23 9h-320q-14 0 -23 -9t-9 -23v-192zM128 928q0 -14 9 -23t23 -9h320q14 0 23 9t9 23v192q0 14 -9 23t-23 9h-320q-14 0 -23 -9t-9 -23v-192zM640 160q0 -14 9 -23t23 -9h320q14 0 23 9t9 23v192q0 14 -9 23t-23 9h-320q-14 0 -23 -9 t-9 -23v-192zM640 544q0 -14 9 -23t23 -9h320q14 0 23 9t9 23v192q0 14 -9 23t-23 9h-320q-14 0 -23 -9t-9 -23v-192zM640 928q0 -14 9 -23t23 -9h320q14 0 23 9t9 23v192q0 14 -9 23t-23 9h-320q-14 0 -23 -9t-9 -23v-192zM1152 160q0 -14 9 -23t23 -9h320q14 0 23 9t9 23 v192q0 14 -9 23t-23 9h-320q-14 0 -23 -9t-9 -23v-192zM1152 544q0 -14 9 -23t23 -9h320q14 0 23 9t9 23v192q0 14 -9 23t-23 9h-320q-14 0 -23 -9t-9 -23v-192zM1152 928q0 -14 9 -23t23 -9h320q14 0 23 9t9 23v192q0 14 -9 23t-23 9h-320q-14 0 -23 -9t-9 -23v-192z" />
<glyph unicode="&#xf0d0;" horiz-adv-x="1664" d="M27 160q0 27 18 45l1286 1286q18 18 45 18t45 -18l198 -198q18 -18 18 -45t-18 -45l-1286 -1286q-18 -18 -45 -18t-45 18l-198 198q-18 18 -18 45zM128 1408l98 30l30 98l30 -98l98 -30l-98 -30l-30 -98l-30 98zM320 1216l196 60l60 196l60 -196l196 -60l-196 -60 l-60 -196l-60 196zM768 1408l98 30l30 98l30 -98l98 -30l-98 -30l-30 -98l-30 98zM1083 1062l107 -107l293 293l-107 107zM1408 768l98 30l30 98l30 -98l98 -30l-98 -30l-30 -98l-30 98z" />
<glyph unicode="&#xf0d1;" horiz-adv-x="1792" d="M64 192q0 26 19 45t45 19v320q0 8 -0.5 35t0 38t2.5 34.5t6.5 37t14 30.5t22.5 30l198 198q19 19 50.5 32t58.5 13h160v192q0 26 19 45t45 19h1024q26 0 45 -19t19 -45v-1024q0 -15 -4 -26.5t-13.5 -18.5t-16.5 -11.5t-23.5 -6t-22.5 -2t-25.5 0t-22.5 0.5 q0 -106 -75 -181t-181 -75t-181 75t-75 181h-384q0 -106 -75 -181t-181 -75t-181 75t-75 181h-64q-3 0 -22.5 -0.5t-25.5 0t-22.5 2t-23.5 6t-16.5 11.5t-13.5 18.5t-4 26.5zM256 640h384v256h-158q-13 0 -22 -9l-195 -195q-9 -9 -9 -22v-30zM384 128q0 -52 38 -90t90 -38 t90 38t38 90t-38 90t-90 38t-90 -38t-38 -90zM1280 128q0 -52 38 -90t90 -38t90 38t38 90t-38 90t-90 38t-90 -38t-38 -90z" />
<glyph unicode="&#xf0d2;" d="M0 640q0 209 103 385.5t279.5 279.5t385.5 103t385.5 -103t279.5 -279.5t103 -385.5t-103 -385.5t-279.5 -279.5t-385.5 -103q-111 0 -218 32q59 93 78 164q9 34 54 211q20 -39 73 -67.5t114 -28.5q121 0 216 68.5t147 188.5t52 270q0 114 -59.5 214t-172.5 163t-255 63 q-105 0 -196 -29t-154.5 -77t-109 -110.5t-67 -129.5t-21.5 -134q0 -104 40 -183t117 -111q30 -12 38 20q2 7 8 31t8 30q6 23 -11 43q-51 61 -51 151q0 151 104.5 259.5t273.5 108.5q151 0 235.5 -82t84.5 -213q0 -170 -68.5 -289t-175.5 -119q-61 0 -98 43.5t-23 104.5 q8 35 26.5 93.5t30 103t11.5 75.5q0 50 -27 83t-77 33q-62 0 -105 -57t-43 -142q0 -73 25 -122l-99 -418q-17 -70 -13 -177q-206 91 -333 281t-127 423z" />
<glyph unicode="&#xf0d3;" d="M0 160v960q0 119 84.5 203.5t203.5 84.5h960q119 0 203.5 -84.5t84.5 -203.5v-960q0 -119 -84.5 -203.5t-202EC4B6AF2" />
<glyph unicode="&#xf0d4;" d="M0 160v960q0 119 84.5 203.5t203.5 84.5h960q119 0 203.5 -84.5t84.5 -203.5v-960q0 -119 -84.5 -203.5t-203.5 -84.5h-960q-119 0 -203.5 84.5t-84.5 203.5zM276 309q0 -43 18.5 -77.5t48.5 -56.5t69 -37t77.5 -21t76.5 -6q60 0 120.5 15.5t113.5 46t86 82.5t33 117 q0 49 -20 89.5t-49 66.5t-58 47.5t-49 44t-20 44.5t15.5 42.5t37.5 39.5t44 42t37.5 59.5t15.5 82.5q0 60 -22.5 99.5t-72.5 90.5h83l88 64h-265q-85 0 -161 -32t-127.5 -98t-51.5 -153q0 -93 64.5 -154.5t158.5 -61.5q22 0 43 3q-13 -29 -13 -54q0 -44 40 -94 q-175 -12 -257 -63q-47 -29 -75.5 -73t-28.5 -95zM395 338q0 46 25 80t65.5 51.5t82 25t84.5 7.5q20 0 31 -2q2 -1 23 -16.5t26 -19t23 -18t24.5 -22t19 -22.5t17 -26t9 -26.5t4.5 -31.5q0 -76 -58.5 -112.5t-139.5 -36.5q-41 0 -80.5 9.5t-75.5 28.5t-58 53t-22 78z M462 969q0 61 32 104t92 43q53 0 93.5 -45t58 -101t17.5 -107q0 -60 -33 -99.5t-92 -39.5q-53 0 -93 42.5t-57.5 96.5t-17.5 106zM960 672h128v-160h64v160h128v64h-128v128h-64v-128h-128v-64z" />
<glyph unicode="&#xf0d5;" horiz-adv-x="1664" d="M32 182q0 81 44.5 150t118.5 115q131 82 404 100q-32 42 -47.5 74t-15.5 73q0 36 21 85q-46 -4 -68 -4q-148 0 -249.5 96.5t-101.5 244.5q0 82 36 159t99 131q77 66 182.5 98t217.5 32h418l-138 -88h-131q74 -63 112 -133t38 -160q0 -72 -24.5 -129.5t-59 -93t-69.5 -65 t-59.5 -61.5t-24.5 -66q0 -36 32 -70.5t77.5 -68t90.5 -73.5t77 -104t32 -142q0 -90 -48 -173q-72 -122 -211 -179.5t-298 -57.5q-132 0 -246.5 41.5t-171.5 137.5q-37 60 -37 131zM218 228q0 -70 35 -123.5t91.5 -83t119 -44t127.5 -14.5q58 0 111.5 13t99 39t73 73 t27.5 109q0 25 -7 49t-14.5 42t-27 41.5t-29.5 35t-38.5 34.5t-36.5 29t-41.5 30t-36.5 26q-16 2 -48 2q-53 0 -105 -7t-107.5 -25t-97 -46t-68.5 -74.5t-27 -105.5zM324 1222q0 -46 10 -97.5t31.5 -103t52 -92.5t75 -67t96.5 -26q38 0 78 16.5t66 43.5q53 57 53 159 q0 58 -17 125t-48.5 129.5t-84.5 103.5t-117 41q-42 0 -82.5 -19.5t-65.5 -52.5q-47 -59 -47 -160zM1084 731v108h212v217h105v-217h213v-108h-213v-219h-105v219h-212z" />
<glyph unicode="&#xf0d6;" horiz-adv-x="1920" d="M0 64v1152q0 26 19 45t45 19h1792q26 0 45 -19t19 -45v-1152q0 -26 -19 -45t-45 -19h-1792q-26 0 -45 19t-19 45zM128 384q106 0 181 -75t75 -181h1152q0 106 75 181t181 75v512q-106 0 -181 75t-75 181h-1152q0 -106 -75 -181t-181 -75v-512zM640 640q0 70 21 142 t59.5 134t101.5 101t138 39t138 -39t101.5 -101t59.5 -134t21 -142t-21 -142t-59.5 -134t-101.5 -101t-138 -39t-138 39t-101.5 101t-59.5 134t-21 142zM762 791l77 -80q42 37 55 57h2v-288h-128v-96h384v96h-128v448h-114z" />
<glyph unicode="&#xf0d7;" horiz-adv-x="1024" d="M0 832q0 26 19 45t45 19h896q26 0 45 -19t19 -45t-19 -45l-448 -448q-19 -19 -45 -19t-45 19l-448 448q-19 19 -19 45z" />
<glyph unicode="&#xf0d8;" horiz-adv-x="1024" d="M0 320q0 26 19 45l448 448q19 19 45 19t45 -19l448 -448q19 -19 19 -45t-19 -45t-45 -19h-896q-26 0 -45 19t-19 45z" />
<glyph unicode="&#xf0d9;" horiz-adv-x="640" d="M64 640q0 26 19 45l448 448q19 19 45 19t45 -19t19 -45v-896q0 -26 -19 -45t-45 -19t-45 19l-448 448q-19 19 -19 45z" />
<glyph unicode="&#xf0da;" horiz-adv-x="640" d="M0 192v896q0 26 19 45t45 19t45 -19l448 -448q19 -19 19 -45t-19 -45l-448 -448q-19 -19 -45 -19t-45 19t-19 45z" />
<glyph unicode="&#xf0db;" horiz-adv-x="1664" d="M0 32v1216q0 66 47 113t113 47h1344q66 0 113 -47t47 -113v-1216q0 -66 -47 -113t-113 -47h-1344q-66 0 -113 47t-47 113zM128 32q0 -13 9.5 -22.5t22.5 -9.5h608v1152h-640v-1120zM896 0h608q13 0 22.5 9.5t9.5 22.5v1120h-640v-1152z" />
<glyph unicode="&#xf0dc;" horiz-adv-x="1024" d="M0 448q0 26 19 45t45 19h896q26 0 45 -19t19 -45t-19 -45l-448 -448q-19 -19 -45 -19t-45 19l-448 448q-19 19 -19 45zM0 832q0 26 19 45l448 448q19 19 45 19t45 -19l448 -448q19 -19 19 -45t-19 -45t-45 -19h-896q-26 0 -45 19t-19 45z" />
<glyph unicode="&#xf0dd;" horiz-adv-x="1024" d="M0 448q0 26 19 45t45 19h896q26 0 45 -19t19 -45t-19 -45l-448 -448q-19 -19 -45 -19t-45 19l-448 448q-19 19 -19 45z" />
<glyph unicode="&#xf0de;" horiz-adv-x="1024" d="M0 832q0 26 19 45l448 448q19 19 45 19t45 -19l448 -448q19 -19 19 -45t-19 -45t-45 -19h-896q-26 0 -45 19t-19 45z" />
<glyph unicode="&#xf0e0;" horiz-adv-x="1792" d="M0 32v794q44 -49 101 -87q362 -246 497 -345q57 -42 92.5 -65.5t94.5 -48t110 -24.5h1h1q51 0 110 24.5t940955537A79" />
<glyph unicode="&#xf0e1;" d="M0 1217q0 74 51.5 122.5t134.5 48.5t133 -48.5t51 -122.5q1 -73 -50.5 -122t-135.5 -49h-2q-82 0 -132 49t-50 122zM19 -80v991h330v-991h-330zM531 -80q2 399 2 647t-1 296l-1 48h329v-144h-2q20 32 41 56t56.5 52t87 43.5t114.5 15.5q171 0 275 -113.5t104 -332.5v-568 h-329v530q0 105 -40.5 164.5t-126.5 59.5q-63 0 -105.5 -34.5t-63.5 -85.5q-11 -30 -11 -81v-553h-329z" />
<glyph unicode="&#xf0e2;" d="M0 832v448q0 42 40 59q39 17 69 -14l130 -129q107 101 244.5 156.5t284.5 55.5q156 0 298 -61t245 -164t164 -245t61 -298t-61 -298t-164 -245t-245 -164t-298 -61q-172 0 -327 72.5t-264 204.5q-7 10 -6.5 22.5t8.5 20.5l137 138q10 9 25 9q16 -2 23 -12 q73 -95 179 -147t225 -52q104 0 198.5 40.5t163.5 109.5t109.5 163.5t40.5 198.5t-40.5 198.5t-109.5 163.5t-163.5 109.5t-198.5 40.5q-98 0 -188 -35.5t-160 -101.5l137 -138q31 -30 14 -69q-17 -40 -59 -40h-448q-26 0 -45 19t-19 45z" />
<glyph unicode="&#xf0e3;" horiz-adv-x="1792" d="M40 736q0 13 4.5 26t9 22t15.5 22t16.5 18.5t20.5 19t18 16.5q30 28 68 28q10 0 18 -1.5t16.5 -5.5t13.5 -6t13.5 -10t11.5 -10t13 -12.5t12 -12.5q-14 14 -14 34t14 34l348 348q14 14 34 14t34 -14q-2 2 -12.5 12t-12.5 13t-10 11.5t-10 13.5t-6 13.5t-5.5 16.5t-1.5 18 q0 38 28 68q3 3 16.5 18t19 20.5t18.5 16.5t22 15.5t22 9t26 4.5q40 0 68 -28l408 -408q28 -28 28 -68q0 -13 -4.5 -26t-9 -22t-15.5 -22t-16.5 -18.5t-20.5 -19t-18 -16.5q-30 -28 -68 -28q-10 0 -18 1.5t-16.5 5.5t-13.5 6t-13.5 10t-11.5 10t-13 12.5t-12 12.5 q14 -14 14 -34t-14 -34l-126 -126l256 -256q43 43 96 43q52 0 91 -37l363 -363q37 -39 37 -91q0 -53 -37 -90l-107 -108q-39 -37 -91 -37q-53 0 -90 37l-363 364q-38 36 -38 90q0 53 43 96l-256 256l-126 -126q-14 -14 -34 -14t-34 14q2 -2 12.5 -12t12.5 -13t10 -11.5 t10 -13.5t6 -13.5t5.5 -16.5t1.5 -18q0 -38 -28 -68q-3 -3 -16.5 -18t-19 -20.5t-18.5 -16.5t-22 -15.5t-22 -9t-26 -4.5q-40 0 -68 28l-408 408q-28 28 -28 68z" />
<glyph unicode="&#xf0e4;" horiz-adv-x="1792" d="M0 384q0 182 71 348t191 286t286 191t348 71t348 -71t286 -191t191 -286t71 -348q0 -261 -141 -483q-19 -2089CEDEA5C" />
<glyph unicode="&#xf0e5;" horiz-adv-x="1792" d="M0 640q0 174 120 321.5t326 233t450 85.5t450 -85.5t326 -233t120 -321.5t-120 -321.5t-326 -233t-450 -85.5q-70 0 -145 8q-198 -175 -460 -242q-49 -14 -114 -22h-5q-15 0 -27 10.5t-16 27.5v1q-3 4 -0.5 12t2 10t4.5 9.5l6 9t7 8.5t8 9q7 8 31 34.5t34.5 38t31 39.5 t32.5 51t27 59t26 76q-157 89 -247.5 220t-90.5 281zM128 640q0 -112 71.5 -213.5t201.5 -175.5l87 -50l-27 -96q-24 -91 -70 -172q152 63 275 171l43 38l57 -6q69 -8 130 -8q204 0 381.5 69.5t282 187.5t104.5 255t-104.5 255t-282 187.5t-381.5 69.5t-381.5 -69.5 t-282 -187.5t-104.5 -255z" />
<glyph unicode="&#xf0e6;" horiz-adv-x="1792" d="M0 768q0 139 94 257t256.5 186.5t353.5 68.5t353.5 -68.5t256.5 -186.5t94 -257t-94 -257t-256.5 -186.5t-353.5 -68.5q-86 0 -176 16q-124 -88 -278 -128q-36 -9 -86 -16h-3q-11 0 -20.5 8t-11.5 21q-1 3 -1 6.5t0.5 6.5t2 6l2.5 5t3.5 5.5t4 5t4.5 5t4 4.5q5 6 23 25 t26 29.5t22.5 29t25 38.5t20.5 44q-124 72 -195 177t-71 224zM128 768q0 -82 53 -158t149 -132l97 -56l-35 -84q34 20 62 39l44 31l53 -10q78 -14 153 -14q153 0 286 52t211.5 141t78.5 191t-78.5 191t-211.5 141t-286 52t-286 -52t-211.5 -141t-78.5 -191zM616 132 q58 -4 88 -4q161 0 309 45t264 129q125 92 192 212t67 254q0 77 -23 152q129 -71 204 -178t75 -230q0 -120 -71 -224.5t-195 -176.5q10 -24 20.5 -44t25 -38.5t22.5 -29t26 -29.5t23 -25q1 -1 4 -4.5t4.5 -5t4 -5t3.5 -5.5l2.5 -5t2 -6t0.5 -6.5t-1 -6.5q-3 -14 -13 -22 t-22 -7q-50 7 -86 16q-154 40 -278 128q-90 -16 -176 -16q-271 0 -472 132z" />
<glyph unicode="&#xf0e7;" horiz-adv-x="896" d="M1 551l201 825q4 14 16 23t28 9h328q19 0 32 -12.5t13 -29.5q0 -8 -5 -18l-171 -463l396 98q8 2 12 2q19 0 34 -15q18 -20 7 -44l-540 -1157q-13 -25 -42 -25q-4 0 -14 2q-17 5 -25.5 19t-4.5 30l197 808l-406 -101q-4 -1 -12 -1q-18 0 -31 11q-18 15 -13 39z" />
<glyph unicode="&#xf0e8;" horiz-adv-x="1792" d="M0 -32v320q0 40 28 68t68 28h96v192q0 52 38 90t90 38h512v192h-96q-40 0 -68 28t-28 68v320q0 40 28 68t68 28h320q40 0 68 -28t28 -68v-320q0 -40 -28 -68t-68 -28h-96v-192h512q52 0 90 -38t38 -90v-192h96q40 0 68 -28t28 -68v-320q0 -40 -28 -68t-68 -28h-320 q-40 0 -68 28t-28 68v320q0 40 28 68t68 28h96v192h-512v-192h96q40 0 68 -28t28 -68v-320q0 -40 -28 -68t-68 -28h-320q-40 0 -68 28t-28 68v320q0 40 28 68t68 28h96v192h-512v-192h96q40 0 68 -28t28 -68v-320q0 -40 -28 -68t-68 -28h-320q-40 0 -68 28t-28 68z" />
<glyph unicode="&#xf0e9;" horiz-adv-x="1664" d="M0 681q0 5 1 7q45 183 172.5 319.5t298 204.5t360.5 68q140 0 274.5 -40t246.5 -113.5t194.5 -187t115.5 -251.5q1 -2 1 -7q0 -13 -9.5 -22.5t-22.5 -9.5q-11 0 -23 10q-49 46 -93 69t-102 23q-68 0 -128 -37t-103 -97q-7 -10 -17.5 -28t-14.5 -24q-11 -17 -28 -17 q-18 0 -29 17q-4 6 -14.5 24t-17.5 28q-43 60 -102.5 97t-127.5 37t-127.5 -37t-102.5 -97q-7 -10 -17.5 -28t-14.5 -24q-11 -17 -29 -17q-17 0 -28 17q-4 6 -14.5 24t-17.5 28q-43 60 -103 97t-128 37q-58 0 -102 -23t-93 -69q-12 -10 -23 -10q-13 0 -22.5 9.5t-9.5 22.5z M384 128q0 26 19 45t45 19t45 -19t19 -45q0 -50 39 -89t89 -39t89 39t39 89v580q33 11 64 11t64 -11v-580q0 -104 -76 -180t-180 -76t-180 76t-76 180zM768 1310v98q0 26 19 45t45 19t45 -19t19 -45v-98q-42 2 -64 2t-64 -2z" />
<glyph unicode="&#xf0ea;" horiz-adv-x="1792" d="M0 96v1344q0 40 28 68t68 28h1088q40 0 68 -28t28 -68v-328q21 -13 36 -28l408 -408q28 -28 48 -76t20 -88v-672q0 -40 -28 -68t-68 -28h-960q-40 0 -68 28t-28 68v160h-544q-40 0 -68 28t-28 68zM256 1312q0 -13 9.5 -22.5t22.5 -9.5h704q13 0 22.5 9.5t9.5 22.5v64 q0 13 -9.5 22.5t-22.5 9.5h-704q-13 0 -22.5 -9.5t-9.5 -22.5v-64zM768 -128h896v640h-416q-40 0 -68 28t-28 68v416h-384v-1152zM1280 640h299l-299 299v-299z" />
<glyph unicode="&#xf0eb;" horiz-adv-x="1024" d="M0 960q0 99 44.5 184.5t117 142t164 89t186.5 32.5t186.5 -32.5t164 -89t117 -142t44.5 -184.5q0 -155 -100BDC6F7A86" />
<glyph unicode="&#xf0ec;" horiz-adv-x="1792" d="M0 256q0 14 9 23l320 320q9 9 23 9q13 0 22.5 -9.5t9.5 -22.5v-192h1376q13 0 22.5 -9.5t9.5 -22.5v-192q00FE7DD5A64" />
<glyph unicode="&#xf0ed;" horiz-adv-x="1920" d="M0 448q0 130 70 240t188 165q-2 30 -2 43q0 212 150 362t362 150q156 0 285.5 -87t188.5 -231q71 62 166 60F6A44BAD2" />
<glyph unicode="&#xf0ee;" horiz-adv-x="1920" d="M0 448q0 130 70 240t188 165q-2 30 -2 43q0 212 150 362t362 150q156 0 285.5 -87t188.5 -231q71 62 166 62q106 0 181 -75t75 -181q0 -76 -41 -138q130 -31 213.5 -135.5t83.5 -238.5q0 -159 -112.5 -271.5t-271.5 -112.5h-1088q-185 0 -316.5 131.5t-131.5 316.5z M512 672q0 -14 9 -23t23 -9h224v-352q0 -13 9.5 -22.5t22.5 -9.5h192q13 0 22.5 9.5t9.5 22.5v352h224q13 0 22.5 9.5t9.5 22.5q0 14 -9 23l-352 352q-9 9 -23 9t-23 -9l-351 -351q-10 -12 -10 -24z" />
<glyph unicode="&#xf0f0;" horiz-adv-x="1408" d="M0 131q0 68 5.5 131t24 138t47.5 132.5t81 103t120 60.5q-22 -52 -22 -120v-203q-58 -20 -93 -70t-35 -1110243EDEAD3" />
<glyph unicode="&#xf0f1;" horiz-adv-x="1408" d="M0 768v512q0 26 19 45t45 19q6 0 16 -2q17 30 47 48t65 18q53 0 90.5 -37.5t37.5 -90.5t-37.5 -90.5t-90.5 -37.5q-33 0 -64 18v-402q0 -106 94 -181t226 -75t226 75t94 181v402q-31 -18 -64 -18q-53 0 -90.5 37.5t-37.5 90.5t37.5 90.5t90.5 37.5q35 0 65 -18t47 -48 q10 2 16 2q26 0 45 -19t19 -45v-512q0 -144 -110 -252t-274 -128v-132q0 -106 94 -181t226 -75t226 75t94 181v395q-57 21 -92.5 70t-35.5 111q0 80 56 136t136 56t136 -56t56 -136q0 -62 -35.5 -111t-92.5 -70v-395q0 -159 -131.5 -271.5t-316.5 -112.5t-316.5 112.5 t-131.5 271.5v132q-164 20 -274 128t-110 252zM1152 832q0 -26 19 -45t45 -19t45 19t19 45t-19 45t-45 19t-45 -19t-19 -45z" />
<glyph unicode="&#xf0f2;" horiz-adv-x="1792" d="M0 96v832q0 92 66 158t158 66h64v-1280h-64q-92 0 -158 66t-66 158zM384 -128v1280h128v160q0 40 28 68t68 28h576q40 0 68 -28t28 -68v-160h128v-1280h-1024zM640 1152h512v128h-512v-128zM1504 -128v1280h64q92 0 158 -66t66 -158v-832q0 -92 -66 -158t-158 -66h-64z " />
<glyph unicode="&#xf0f3;" horiz-adv-x="1664" d="M0 128q190 161 287 397.5t97 498.5q0 165 96 262t264 117q-8 18 -8 37q0 40 28 68t68 28t68 -28t28 -68q0 -19 -8 -37q168 -20 264 -117t96 -262q0 -262 97 -498.5t287 -397.5q0 -52 -38 -90t-90 -38h-448q0 -106 -75 -181t-181 -75t-181 75t-75 181h-448q-52 0 -90 38 t-38 90zM656 0q0 -73 51.5 -124.5t124.5 -51.5q16 0 16 16t-16 16q-59 0 -101.5 42.5t-42.5 101.5q0 16 -16 16t-16 -16z" />
<glyph unicode="&#xf0f4;" horiz-adv-x="1920" d="M0 128h1792q0 -106 -75 -181t-181 -75h-1280q-106 0 -181 75t-75 181zM256 480v736q0 26 19 45t45 19h1152q159 0 271.5 -112.5t112.5 -271.5t-112.5 -271.5t-271.5 -112.5h-64v-32q0 -92 -66 -158t-158 -66h-704q-92 0 -158 66t-66 158zM1408 704h64q80 0 136 56t56 136 t-56 136t-136 56h-64v-384z" />
<glyph unicode="&#xf0f5;" horiz-adv-x="1408" d="M0 832v640q0 26 19 45t45 19t45 -19t19 -45v-416q0 -26 19 -45t45 -19t45 19t19 45v416q0 26 19 45t45 19t0D727D3AFC" />
<glyph unicode="&#xf0f6;" d="M0 -160v1600q0 40 28 68t68 28h896q40 0 88 -20t76 -48l312 -312q28 -28 48 -76t20 -88v-1152q0 -40 -28 -68t-68 -28h-1344q-40 0 -68 28t-28 68zM128 -128h1280v1024h-416q-40 0 -68 28t-28 68v416h-768v-1536zM384 160v64q0 14 9 23t23 9h704q14 0 23 -9t9 -23v-64 q0 -14 -9 -23t-23 -9h-704q-14 0 -23 9t-9 23zM384 416v64q0 14 9 23t23 9h704q14 0 23 -9t9 -23v-64q0 -14 -9 -23t-23 -9h-704q-14 0 -23 9t-9 23zM384 672v64q0 14 9 23t23 9h704q14 0 23 -9t9 -23v-64q0 -14 -9 -23t-23 -9h-704q-14 0 -23 9t-9 23zM1024 1024h376 q-10 29 -22 41l-313 313q-12 12 -41 22v-376z" />
<glyph unicode="&#xf0f7;" horiz-adv-x="1408" d="M0 -192v1664q0 26 19 45t45 19h1280q26 0 45 -19t19 -45v-1664q0 -26 -19 -45t-45 -19h-1280q-26 0 -45 190008561AD1" />
<glyph unicode="&#xf0f8;" horiz-adv-x="1408" d="M0 -192v1280q0 26 19 45t45 19h320v288q0 40 28 68t68 28h448q40 0 68 -28t28 -68v-288h320q26 0 45 -19t10BC293CA03" />
<glyph unicode="&#xf0f9;" horiz-adv-x="1920" d="M64 192q0 26 19 45t45 19v416q0 26 13 58t32 51l198 198q19 19 51 32t58 13h160v320q0 26 19 45t45 19h11502C47E6A4E" />
<glyph unicode="&#xf0fa;" horiz-adv-x="1792" d="M0 96v832q0 92 66 158t158 66h32v-1280h-32q-92 0 -158 66t-66 158zM352 -128v1280h160v160q0 40 28 68t68 28h576q40 0 68 -28t28 -68v-160h160v-1280h-1088zM512 416q0 -14 9 -23t23 -9h224v-224q0 -14 9 -23t23 -9h192q14 0 23 9t9 23v224h224q14 0 23 9t9 23v192 q0 14 -9 23t-23 9h-224v224q0 14 -9 23t-23 9h-192q-14 0 -23 -9t-9 -23v-224h-224q-14 0 -23 -9t-9 -23v-192zM640 1152h512v128h-512v-128zM1536 -128v1280h32q92 0 158 -66t66 -158v-832q0 -92 -66 -158t-158 -66h-32z" />
<glyph unicode="&#xf0fb;" horiz-adv-x="1920" d="M0 512v128l192 24v8h-128v32h-32v192l32 32h96l192 -224h160v416h-64v32h64h160h96q26 0 45 -4.5t19 -11.5t-19 -11.5t-45 -4.5h-69l293 -352h64l224 -64l352 -32q261 -58 287 -93l1 -3q-1 -32 -288 -96l-352 -32l-224 -64h-64l-293 -352h69q26 0 45 -4.5t19 -11.5 t-19 -11.5t-45 -4.5h-96h-160h-64v32h64v416h-160l-192 -224h-96l-32 32v192h32v32h128v8z" />
<glyph unicode="&#xf0fc;" horiz-adv-x="1664" d="M64 1152l32 128h480l32 128h960l32 -192l-64 -32v-800l128 -192v-192h-1152v192l128 192h-128q-159 0 -271.5 112.5t-112.5 271.5v320zM384 768q0 -53 37.5 -90.5t90.5 -37.5h128v384h-256v-256z" />
<glyph unicode="&#xf0fd;" d="M0 160v960q0 119 84.5 203.5t203.5 84.5h960q119 0 203.5 -84.5t84.5 -203.5v-960q0 -119 -84.5 -203.5t-203.5 -84.5h-960q-119 0 -203.5 84.5t-84.5 203.5zM256 192q0 -26 19 -45t45 -19h128q26 0 45 19t19 45v320h512v-320q0 -26 19 -45t45 -19h128q26 0 45 19t19 45 v896q0 26 -19 45t-45 19h-128q-26 0 -45 -19t-19 -45v-320h-512v320q0 26 -19 45t-45 19h-128q-26 0 -45 -19t-19 -45v-896z" />
<glyph unicode="&#xf0fe;" d="M0 160v960q0 119 84.5 203.5t203.5 84.5h960q119 0 203.5 -84.5t84.5 -203.5v-960q0 -119 -84.5 -203.5t-203.5 -84.5h-960q-119 0 -203.5 84.5t-84.5 203.5zM256 576q0 -26 19 -45t45 -19h320v-320q0 -26 19 -45t45 -19h128q26 0 45 19t19 45v320h320q26 0 45 19t19 45 v128q0 26 -19 45t-45 19h-320v320q0 26 -19 45t-45 19h-128q-26 0 -45 -19t-19 -45v-320h-320q-26 0 -45 -19t-19 -45v-128z" />
<glyph unicode="&#xf100;" horiz-adv-x="1024" d="M45 576q0 13 10 23l466 466q10 10 23 10t23 -10l50 -50q10 -10 10 -23t-10 -23l-393 -393l393 -393q10 -10 10 -23t-10 -23l-50 -50q-10 -10 -23 -10t-23 10l-466 466q-10 10 -10 23zM429 576q0 13 10 23l466 466q10 10 23 10t23 -10l50 -50q10 -10 10 -23t-10 -23 l-393 -393l393 -393q10 -10 10 -23t-10 -23l-50 -50q-10 -10 -23 -10t-23 10l-466 466q-10 10 -10 23z" />
<glyph unicode="&#xf101;" horiz-adv-x="1024" d="M13 160q0 13 10 23l393 393l-393 393q-10 10 -10 23t10 23l50 50q10 10 23 10t23 -10l466 -466q10 -10 10 -23t-10 -23l-466 -466q-10 -10 -23 -10t-23 10l-50 50q-10 10 -10 23zM397 160q0 13 10 23l393 393l-393 393q-10 10 -10 23t10 23l50 50q10 10 23 10t23 -10 l466 -466q10 -10 10 -23t-10 -23l-466 -466q-10 -10 -23 -10t-23 10l-50 50q-10 10 -10 23z" />
<glyph unicode="&#xf102;" horiz-adv-x="1152" d="M77 224q0 13 10 23l466 466q10 10 23 10t23 -10l466 -466q10 -10 10 -23t-10 -23l-50 -50q-10 -10 -23 -10t-23 10l-393 393l-393 -393q-10 -10 -23 -10t-23 10l-50 50q-10 10 -10 23zM77 608q0 13 10 23l466 466q10 10 23 10t23 -10l466 -466q10 -10 10 -23t-10 -23 l-50 -50q-10 -10 -23 -10t-23 10l-393 393l-393 -393q-10 -10 -23 -10t-23 10l-50 50q-10 10 -10 23z" />
<glyph unicode="&#xf103;" horiz-adv-x="1152" d="M77 672q0 13 10 23l50 50q10 10 23 10t23 -10l393 -393l393 393q10 10 23 10t23 -10l50 -50q10 -10 10 -23t-10 -23l-466 -466q-10 -10 -23 -10t-23 10l-466 466q-10 10 -10 23zM77 1056q0 13 10 23l50 50q10 10 23 10t23 -10l393 -393l393 393q10 10 23 10t23 -10 l50 -50q10 -10 10 -23t-10 -23l-466 -466q-10 -10 -23 -10t-23 10l-466 466q-10 10 -10 23z" />
<glyph unicode="&#xf104;" horiz-adv-x="640" d="M45 576q0 13 10 23l466 466q10 10 23 10t23 -10l50 -50q10 -10 10 -23t-10 -23l-393 -393l393 -393q10 -10 10 -23t-10 -23l-50 -50q-10 -10 -23 -10t-23 10l-466 466q-10 10 -10 23z" />
<glyph unicode="&#xf105;" horiz-adv-x="640" d="M13 160q0 13 10 23l393 393l-393 393q-10 10 -10 23t10 23l50 50q10 10 23 10t23 -10l466 -466q10 -10 10 -23t-10 -23l-466 -466q-10 -10 -23 -10t-23 10l-50 50q-10 10 -10 23z" />
<glyph unicode="&#xf106;" horiz-adv-x="1152" d="M77 352q0 13 10 23l466 466q10 10 23 10t23 -10l466 -466q10 -10 10 -23t-10 -23l-50 -50q-10 -10 -23 -10t-23 10l-393 393l-393 -393q-10 -10 -23 -10t-23 10l-50 50q-10 10 -10 23z" />
<glyph unicode="&#xf107;" horiz-adv-x="1152" d="M77 800q0 13 10 23l50 50q10 10 23 10t23 -10l393 -393l393 393q10 10 23 10t23 -10l50 -50q10 -10 10 -23t-10 -23l-466 -466q-10 -10 -23 -10t-23 10l-466 466q-10 10 -10 23z" />
<glyph unicode="&#xf108;" horiz-adv-x="1920" d="M0 288v1088q0 66 47 113t113 47h1600q66 0 113 -47t47 -113v-1088q0 -66 -47 -113t-113 -47h-544q0 -37 16 -77.5t32 -71t16 -43.5q0 -26 -19 -45t-45 -19h-512q-26 0 -45 19t-19 45q0 14 16 44t32 70t16 78h-544q-66 0 -113 47t-47 113zM128 544q0 -13 9.5 -22.5 t22.5 -9.5h1600q13 0 22.5 9.5t9.5 22.5v832q0 13 -9.5 22.5t-22.5 9.5h-1600q-13 0 -22.5 -9.5t-9.5 -22.5v-832z" />
<glyph unicode="&#xf109;" horiz-adv-x="1920" d="M0 96v96h160h1600h160v-96q0 -40 -47 -68t-113 -28h-1600q-66 0 -113 28t-47 68zM256 416v704q0 66 47 113t113 47h1088q66 0 113 -47t47 -113v-704q0 -66 -47 -113t-113 -47h-1088q-66 0 -113 47t-47 113zM384 416q0 -13 9.5 -22.5t22.5 -9.5h1088q13 0 22.5 9.5 t9.5 22.5v704q0 13 -9.5 22.5t-22.5 9.5h-1088q-13 0 -22.5 -9.5t-9.5 -22.5v-704zM864 112q0 -16 16 -16h160q16 0 16 16t-16 16h-160q-16 0 -16 -16z" />
</font>
</defs>
</svg>
